Thread Rating:
  • 0 Vote(s) - 0 Average
  • 1
  • 2
  • 3
  • 4
  • 5

[-]
Tags
bluray kung x264 1080p prodji 2016 trilogy fu panda dts 2008

  Kung Fu Panda Trilogy (2008-2016) BluRay 1080p DTS x264-PRoDJi
#1
Kung Fu Panda Trilogy (2008-2016) BluRay 1080p DTS x264-PRoDJi

[Image: panda.jpg]

[Image: imdb.png]
https://www.imdb.com/title/tt0441773/
https://www.imdb.com/title/tt1302011/
https://www.imdb.com/title/tt2267968/

[Image: info.png]
Format : Matroska
Format version : Version 4
File size : 6.55 GiB
Duration : 1 h 32 min
Overall bit rate : 10.2 Mb/s
Encoded date : UTC 2016-06-21 10:07:03
Writing application : mkvmerge v7.8.0 ('River Man') 32bit built on Mar 27 2015 16:18:02
Writing library : libebml v1.3.1 + libmatroska v1.4.2

Video
ID : 1
Format : AVC
Format/Info : Advanced Video Codec
Format profile : High@L4.1
Format settings : CABAC / 4 Ref Frames
Format settings, CABAC : Yes
Format settings, RefFrames : 4 frames
Codec ID : V_MPEG4/ISO/AVC
Duration : 1 h 32 min
Bit rate : 8 027 kb/s
Width : 1 920 pixels
Height : 816 pixels
Display aspect ratio : 2.35:1
Frame rate mode : Constant
Frame rate : 23.976 (24000/1001) FPS
Color space : YUV
Chroma subsampling : 4:2:0
Bit depth : 8 bits
Scan type : Progressive
Bits/(Pixel*Frame) : 0.214
Stream size : 5.17 GiB (79%)
Title : @8027 Kbps High Profiles @L4.1
Writing library : x264 core 148 r2638 7599210
Encoding settings : cabac=1 / ref=5 / deblock=1:-1:-1 / analyse=0x3:0x113 / me=umh / subme=9 / psy=1 / psy_rd=1.00:0.00 / mixed_ref=1 / me_range=24 / chroma_me=1 / trellis=2 / 8x8dct=1 / cqm=0 / deadzone=21,11 / fast_pskip=1 / chroma_qp_offset=-5 / threads=6 / lookahead_threads=1 / sliced_threads=0 / nr=0 / decimate=0 / interlaced=0 / bluray_compat=0 / constrained_intra=0 / bframes=5 / b_pyramid=1 / b_adapt=2 / b_bias=2 / direct=3 / weightb=1 / open_gop=0 / weightp=2 / keyint=230 / keyint_min=22 / scenecut=40 / intra_refresh=0 / rc_lookahead=45 / rc=2pass / mbtree=1 / bitrate=8027 / ratetol=1.0 / qcomp=0.60 / qpmin=10 / qpmax=41 / qpstep=4 / cplxblur=20.0 / qblur=0.5 / ip_ratio=1.30 / aq=1:1.00
Language : English
Default : Yes
Forced : No

Audio #1
ID : 2
Format : DTS
Format/Info : Digital Theater Systems
Codec ID : A_DTS
Duration : 1 h 32 min
Bit rate mode : Constant
Bit rate : 1 510 kb/s
Channel(s) : 6 channels
Channel layout : C L R Ls Rs LFE
Sampling rate : 48.0 kHz
Frame rate : 93.750 FPS (512 SPF)
Bit depth : 24 bits
Compression mode : Lossy
Stream size : 995 MiB (15%)
Title : DTS@1509Kbps 6 chnls
Language : English
Default : Yes
Forced : No

Audio #2
ID : 3
Format : AC-3
Format/Info : Audio Coding 3
Commercial name : Dolby Digital
Codec ID : A_AC3
Duration : 1 h 32 min
Bit rate mode : Constant
Bit rate : 640 kb/s
Channel(s) : 6 channels
Channel layout : L R C LFE Ls Rs
Sampling rate : 48.0 kHz
Frame rate : 31.250 FPS (1536 SPF)
Bit depth : 16 bits
Compression mode : Lossy
Stream size : 422 MiB (6%)
Title : AC3@640Kbps 6 chnls
Language : Turkish
Service kind : Complete Main
Default : No
Forced : No

Text #1
ID : 4
Format : UTF-8
Codec ID : S_TEXT/UTF8
Codec ID/Info : UTF-8 Plain Text
Duration : 1 h 25 min
Bit rate : 47 b/s
Count of elements : 977
Stream size : 29.8 KiB (0%)
Language : English
Default : Yes
Forced : No

Text #2
ID : 5
Format : UTF-8
Codec ID : S_TEXT/UTF8
Codec ID/Info : UTF-8 Plain Text
Duration : 1 h 22 min
Bit rate : 46 b/s
Count of elements : 934
Stream size : 28.2 KiB (0%)
Language : Turkish
Default : No
Forced : No

Menu
00:00:00.000 : en:Chapter 1
00:02:31.401 : en:Chapter 2
00:05:17.066 : en:Chapter 3
00:07:58.895 : en:Chapter 4
00:10:41.932 : en:Chapter 5
00:16:39.331 : en:Chapter 6
00:19:28.500 : en:Chapter 7
00:22:41.651 : en:Chapter 8
00:26:19.869 : en:Chapter 9
00:31:13.872 : en:Chapter 10
00:35:26.123 : en:Chapter 11
00:38:35.604 : en:Chapter 12
00:42:34.760 : en:Chapter 13
00:45:45.909 : en:Chapter 14
00:51:29.711 : en:Chapter 15
00:56:29.052 : en:Chapter 16
00:58:48.358 : en:Chapter 17
01:02:06.222 : en:Chapter 18
01:06:52.883 : en:Chapter 19
01:09:52.938 : en:Chapter 20
01:14:05.482 : en:Chapter 21
01:20:04.466 : en:Chapter 22
01:23:11.987 : en:Chapter 23

[Image: 1.jpg]

[Image: 2.jpg]

[Image: tdown.png]

For Only Vip Members
Reply


Possibly Related Threads...
Thread Author Replies Views Last Post
  Smokin Aces Duology (2006-2010) BluRay 1080p DTS x264-PRoDJi admin 0 93 12-07-2018, 11:17 AM
Last Post: admin
  The Expendables Triology (2010-2014) BluRay 810p-1080p DTS x264-PRoDJi admin 1 134 12-06-2018, 05:50 PM
Last Post: rechterpoot
  Rosemarys Baby (2014) Part 1-2 BluRay 1080p DTS x264-PRoDJi admin 0 79 12-05-2018, 10:11 PM
Last Post: admin
  Crocodile Dundee (1986-1988) Duology BluRay 1080p DTS x264-PRoDJi admin 0 95 12-02-2018, 03:06 PM
Last Post: admin
  Taxi Quadrilogy (1998-2007) BluRay 810p DTS x264-PRoDJi admin 0 107 11-17-2018, 11:45 AM
Last Post: admin

Forum Jump:


Users browsing this thread: 1 Guest(s)

Powered By MyBB
Theme By Audentio Design
Updated By iAndrew | 2018