Thread Rating:
  • 0 Vote(s) - 0 Average
  • 1
  • 2
  • 3
  • 4
  • 5

[-]
Tags
hanami bluray savourtime 1080p 2007 hd ma kirschblueten vc1 1 remux dts 5

  Kirschblueten Hanami (2007) Bluray Remux 1080p VC1 DTS-HD MA 5.1-SAVOURTiME
#1
Kirschblueten Hanami (2007) Bluray Remux 1080p VC1 DTS-HD MA  5.1-SAVOURTiME

[Image: tt0910559.jpg]

[Image: imdb.png]
https://www.imdb.com/title/tt0910559/

[Image: info.png]
Movie name                               : Kirschblueten.Hanami.2007.DTS.1080p.BluRay.VC1.REMUX-SAVOURTiME

Video
ID                                       : 1
Format                                   : VC-1
Format profile                           : [email protected]
Codec ID                                 : V_MS/VFW/FOURCC / WVC1
Codec ID/Hint                            : Microsoft
Duration                                 : 2 h 7 min
Bit rate                                 : 16.5 Mb/s
Width                                    : 1 920 pixels
Height                                   : 1 080 pixels
Display aspect ratio                     : 16:9
Frame rate mode                          : Constant
Frame rate                               : 23.976 (24000/1001) FPS
Color space                              : YUV
Chroma subsampling                       : 4:2:0
Bit depth                                : 8 bits
Scan type                                : Progressive
Compression mode                         : Lossy
Bits/(Pixel*Frame)                       : 0.332
Stream size                              : 14.7 GiB (95%)
Default                                  : Yes
Forced                                   : No

Audio
ID                                       : 2
Format                                   : DTS
Format/Info                              : Digital Theater Systems
Codec ID                                 : A_DTS
Duration                                 : 2 h 7 min
Bit rate mode                            : Constant
Bit rate                                 : 768 kb/s
Channel(s)                               : 6 channels
Channel layout                           : C L R Ls Rs LFE
Sampling rate                            : 48.0 kHz
Frame rate                               : 93.750 FPS (512 SPF)
Bit depth                                : 16 bits
Compression mode                         : Lossy
Stream size                              : 702 MiB (4%)
Language                                 : German
Default                                  : Yes
Forced                                   : No

Text #1
ID                                       : 3
Format                                   : PGS
Muxing mode                              : zlib
Codec ID                                 : S_HDMV/PGS
Codec ID/Info                            : Picture based subtitle format used on BDs/HD-DVDs
Duration                                 : 1 h 0 min
Bit rate                                 : 5 748 b/s
Count of elements                        : 280
Stream size                              : 2.49 MiB (0%)
Title                                    : German Forced
Language                                 : German
Default                                  : Yes
Forced                                   : No

Text #2
ID                                       : 4
Format                                   : PGS
Muxing mode                              : zlib
Codec ID                                 : S_HDMV/PGS
Codec ID/Info                            : Picture based subtitle format used on BDs/HD-DVDs
Duration                                 : 2 h 1 min
Bit rate                                 : 27.7 kb/s
Count of elements                        : 1676
Stream size                              : 24.1 MiB (0%)
Title                                    : German Full
Language                                 : German
Default                                  : No
Forced                                   : No

Text #3
ID                                       : 5
Format                                   : PGS
Muxing mode                              : zlib
Codec ID                                 : S_HDMV/PGS
Codec ID/Info                            : Picture based subtitle format used on BDs/HD-DVDs
Duration                                 : 2 h 7 min
Bit rate                                 : 14.5 kb/s
Count of elements                        : 1172
Stream size                              : 13.2 MiB (0%)
Title                                    : English Full
Language                                 : English
Default                                  : No
Forced                                   : No

[Image: rDQ0evZV_o.jpg]

[Image: X0cMGJSs_o.jpg]

[Image: tdown.png]

For Only Vip Members

Kirschblueten Hanami (2007) Bluray Remux 1080p VC1 DTS-HD MA 5.1-SAVOURTiME VIP
Reply


Possibly Related Threads…
Thread Author Replies Views Last Post
  The Kingdom 2007 1080p Blu-ray Remux VC-1 DTS-HD MA 5.1 - KRaLiMaRKo KAiJu 0 118 11-19-2020, 11:50 AM
Last Post: KAiJu
  The Hills Have Eyes I-II (2006-2007) Bluray REMUX 1080p AVC DTS-HD MA 5.1-HUSe AbrA 1 200 10-11-2020, 06:24 PM
Last Post: pastifox
  The Hitcher (2007) Bluray REMUX 1080p AVC DTS-HD MA 5.1-HUSe AbrA 0 124 10-05-2020, 01:50 PM
Last Post: AbrA
  Blades Of Glory 2007 Bluray REMUX 1080p AVC DD 5.1-HUSe AbrA 0 163 09-22-2020, 04:01 PM
Last Post: AbrA
  The Heartbreak Kid (2007) Bluray REMUX 1080p AVC DD 5.1-HUSe AbrA 0 187 09-14-2020, 08:48 PM
Last Post: AbrA

Forum Jump:


Users browsing this thread: 1 Guest(s)

Powered By MyBB
Theme By Audentio Design
Updated By iAndrew | 2018