Thread Rating:
  • 0 Vote(s) - 0 Average
  • 1
  • 2
  • 3
  • 4
  • 5

[-]
Tags
bluray avc 1080p 2017 7 the circle en hd ma 1 golden remux dts tr kingsman

 
  Kingsman The Golden Circle (2017) Bluray remux 1080p TR-EN AVC DTS-HD MA 7.1
#1
Kingsman The Golden Circle (2017) Bluray remux 1080p TR-EN AVC DTS-HD MA 7.1

[Image: tt4649466.jpg]

[Image: imdb.png]
https://www.imdb.com/title/tt4649466/

[Image: info.png]
Kingsman The Golden Circle 2017 TR EN.mkv
Format                      : Matroska
Format version              : Version 4 / Version 2
File size                   : 27.1 GiB
Duration                    : 2 h 21 min
Overall bit rate mode       : Variable
Overall bit rate            : 27.5 Mb/s
Movie name                  : Kingsman: The Golden Circle
Encoded date                : UTC 2017-12-28 18:02:23
Writing application         : mkvmerge v19.0.0 ('Brave Captain') 64-bit
Writing library             : libebml v1.3.5 + libmatroska v1.4.8

Video
ID                          : 1
Format                      : AVC
Format/Info                 : Advanced Video Codec
Format profile              : [email protected]
Format settings             : CABAC / 4 Ref Frames
Format settings, CABAC      : Yes
Format settings, ReFrames   : 4 frames
Codec ID                    : V_MPEG4/ISO/AVC
Duration                    : 2 h 21 min
Bit rate mode               : Variable
Bit rate                    : 21.7 Mb/s
Maximum bit rate            : 33.5 Mb/s
Width                       : 1 920 pixels
Height                      : 1 080 pixels
Display aspect ratio        : 16:9
Frame rate mode             : Constant
Frame rate                  : 23.976 (24000/1001) FPS
Color space                 : YUV
Chroma subsampling          : 4:2:0
Bit depth                   : 8 bits
Scan type                   : Progressive
Bits/(Pixel*Frame)          : 0.436
Stream size                 : 21.4 GiB (79%)
Title                       : Kingsman: The Golden Circle
Language                    : English
Default                     : Yes
Forced                      : No

Audio #1
ID                          : 2
Format                      : DTS
Format/Info                 : Digital Theater Systems
Format profile              : MA / Core
Codec ID                    : A_DTS
Duration                    : 2 h 21 min
Bit rate mode               : Variable / Constant
Bit rate                    : 5 129 kb/s / 1 509 kb/s
Channel(s)                  : 8 channels / 6 channels
Channel positions           : Front: L C R, Side: L R, Back: L R, LFE / Front: L C R, Side: L R, LFE
Sampling rate               : 48.0 kHz
Frame rate                  : 93.750 FPS (512 SPF)
Bit depth                   : 24 bits
Compression mode            : Lossless / Lossy
Stream size                 : 5.05 GiB (19%)
Title                       : English
Language                    : English
Default                     : Yes
Forced                      : No

Audio #2
ID                          : 3
Format                      : AC-3
Format/Info                 : Audio Coding 3
Codec ID                    : A_AC3
Duration                    : 2 h 21 min
Bit rate mode               : Constant
Bit rate                    : 640 kb/s
Channel(s)                  : 6 channels
Channel positions           : Front: L C R, Side: L R, LFE
Sampling rate               : 48.0 kHz
Frame rate                  : 31.250 FPS (1536 SPF)
Bit depth                   : 16 bits
Compression mode            : Lossy
Stream size                 : 646 MiB (2%)
Title                       : Turkish
Language                    : Turkish
Service kind                : Complete Main
Default                     : No
Forced                      : No

Text #1
ID                          : 4
Format                      : PGS
Muxing mode                 : zlib
Codec ID                    : S_HDMV/PGS
Codec ID/Info               : Picture based subtitle format used on BDs/HD-DVDs
Duration                    : 2 h 13 min
Bit rate                    : 34.1 kb/s
Count of elements           : 3338
Stream size                 : 32.5 MiB (0%)
Title                       : English
Language                    : English
Default                     : No
Forced                      : No

Text #2
ID                          : 5
Format                      : PGS
Muxing mode                 : zlib
Codec ID                    : S_HDMV/PGS
Codec ID/Info               : Picture based subtitle format used on BDs/HD-DVDs
Duration                    : 2 h 19 min
Bit rate                    : 31.2 kb/s
Count of elements           : 3438
Stream size                 : 31.3 MiB (0%)
Title                       : Turkish
Language                    : Turkish
Default                     : Yes
Forced                      : No

[Image: 47053936974_f18e8fdd7a_b.jpg]

[Image: 47843586791_ed633f034c_b.jpg]

[Image: tdown.png]

For Only Vip Members

Kingsman The Golden Circle (2017) Bluray remux 1080p TR-EN AVC DTS-HD MA 7.1 VIP
Reply


Possibly Related Threads…
Thread Author Replies Views Last Post
  On Golden Pond (1981) Bluray Remux 1080p AVC DTS 2.0 admin 0 1,165 06-03-2019, 08:50 AM
Last Post: admin
  The Red Circle (1970) Bluray Remux 1080p AVC DTS 2.0 admin 0 1,317 05-16-2019, 02:06 PM
Last Post: admin

Forum Jump:


Users browsing this thread: 1 Guest(s)

Powered By MyBB
RSS RSS Syndication
Updated By iAndrew | 2022