Thread Rating:
  • 0 Vote(s) - 0 Average
  • 1
  • 2
  • 3
  • 4
  • 5

[-]
Tags
bluray avc 1080p joe hd killer ma 1 2011 remux dts 5

  Killer Joe (2011) Bluray Remux 1080p AVC DTS-HD MA 5.1
#1
Killer Joe (2011) Bluray Remux 1080p AVC DTS-HD MA 5.1

[Image: tt1726669.jpg]

[Image: imdb.png]
https://www.imdb.com/title/tt1726669/

[Image: info.png]
Killer Joe 2011 EN.mkv
Format                      : Matroska
Format version              : Version 4 / Version 2
File size                   : 27.1 GiB
Duration                    : 1 h 42 min
Overall bit rate mode       : Variable
Overall bit rate            : 37.7 Mb/s
Movie name                  : Killer Joe
Encoded date                : UTC 2017-08-15 23:55:23
Writing application         : mkvmerge v14.0.0 ('Flow') 64bit
Writing library             : libebml v1.3.4 + libmatroska v1.4.5

Video
ID                          : 1
Format                      : AVC
Format/Info                 : Advanced Video Codec
Format profile              : [email protected]
Format settings             : CABAC / 4 Ref Frames
Format settings, CABAC      : Yes
Format settings, ReFrames   : 4 frames
Codec ID                    : V_MPEG4/ISO/AVC
Duration                    : 1 h 42 min
Bit rate mode               : Variable
Bit rate                    : 34.2 Mb/s
Maximum bit rate            : 36.0 Mb/s
Width                       : 1 920 pixels
Height                      : 1 080 pixels
Display aspect ratio        : 16:9
Frame rate mode             : Constant
Frame rate                  : 23.976 (24000/1001) FPS
Color space                 : YUV
Chroma subsampling          : 4:2:0
Bit depth                   : 8 bits
Scan type                   : Progressive
Bits/(Pixel*Frame)          : 0.688
Stream size                 : 24.6 GiB (91%)
Title                       : Killer Joe
Language                    : English
Default                     : Yes
Forced                      : No

Audio
ID                          : 2
Format                      : DTS
Format/Info                 : Digital Theater Systems
Format profile              : MA / Core
Codec ID                    : A_DTS
Duration                    : 1 h 42 min
Bit rate mode               : Variable / Constant
Bit rate                    : 3 461 kb/s / 1 509 kb/s
Channel(s)                  : 6 channels
Channel positions           : Front: L C R, Side: L R, LFE
Sampling rate               : 48.0 kHz
Frame rate                  : 93.750 FPS (512 SPF)
Bit depth                   : 24 bits
Compression mode            : Lossless / Lossy
Stream size                 : 2.49 GiB (9%)
Title                       : English
Language                    : English
Default                     : Yes
Forced                      : No

Text #1
ID                          : 3
Format                      : PGS
Muxing mode                 : zlib
Codec ID                    : S_HDMV/PGS
Codec ID/Info               : Picture based subtitle format used on BDs/HD-DVDs
Duration                    : 1 h 36 min
Bit rate                    : 39.8 kb/s
Count of elements           : 2886
Stream size                 : 27.5 MiB (0%)
Title                       : English
Language                    : English
Default                     : No
Forced                      : No

Text #2
ID                          : 4
Format                      : PGS
Muxing mode                 : zlib
Codec ID                    : S_HDMV/PGS
Codec ID/Info               : Picture based subtitle format used on BDs/HD-DVDs
Duration                    : 1 h 36 min
Bit rate                    : 30.1 kb/s
Count of elements           : 2828
Stream size                 : 20.8 MiB (0%)
Title                       : Turkish
Language                    : Turkish
Default                     : Yes
Forced                      : No

[Image: 32899474727_19cefd3f4b_b.jpg]

[Image: 32899476077_262c525531_b.jpg]

[Image: tdown.png]

For Only Vip Members

Killer Joe (2011) Bluray Remux 1080p AVC DTS-HD MA 5.1 VIP
Reply


Possibly Related Threads…
Thread Author Replies Views Last Post
  The Clovehitch Killer (2018) Bluray Remux 1080p AVC DTS-HD MA 5.1 admin 0 880 08-24-2019, 12:11 PM
Last Post: admin
  Hunter Killer (2018) Bluray Remux 1080p AVC TrueHD 7.1 admin 0 814 07-03-2019, 01:28 PM
Last Post: admin
  Jack the Giant Killer (1962) Original Version Bluray Remux 1080p AVC DTS-HD MA 2.0 admin 0 912 06-06-2019, 11:23 AM
Last Post: admin

Forum Jump:


Users browsing this thread: 1 Guest(s)

Powered By MyBB
Theme By Audentio Design
Updated By iAndrew | 2018