Thread Rating:
  • 0 Vote(s) - 0 Average
  • 1
  • 2
  • 3
  • 4
  • 5

[-]
Tags
kikoriki bluray invincible avc 1080p hd ma 1 2011 remux dts 5 team

  Kikoriki Team Invincible (2011) Bluray Remux 1080p AVC DTS-HD MA 5.1
#1
Kikoriki Team Invincible (2011) Bluray Remux 1080p AVC DTS-HD MA 5.1

[Image: tt2124046.jpg]

[Image: imdb.png]
https://www.imdb.com/title/tt2124046/

[Image: info.png]
Kikoriki Team Invincible aka Smeshariki Nachalo 2011 TR RU.mkv
Format                      : Matroska
Format version              : Version 4 / Version 2
File size                   : 14.4 GiB
Duration                    : 1 h 30 min
Overall bit rate mode       : Variable
Overall bit rate            : 22.7 Mb/s
Movie name                  : Kikoriki: Team Invincible aka Smeshariki: Nachalo
Encoded date                : UTC 2017-12-04 21:19:40
Writing application         : mkvmerge v18.0.0 ('Apricity') 64-bit
Writing library             : libebml v1.3.5 + libmatroska v1.4.8

Video
ID                          : 1
Format                      : AVC
Format/Info                 : Advanced Video Codec
Format profile              : [email protected]
Format settings, CABAC      : Yes
Format settings, ReFrames   : 4 frames
Format settings, GOP        : M=4, N=24
Codec ID                    : V_MPEG4/ISO/AVC
Duration                    : 1 h 30 min
Bit rate mode               : Variable
Bit rate                    : 18.0 Mb/s
Maximum bit rate            : 28.0 Mb/s
Width                       : 1 920 pixels
Height                      : 1 080 pixels
Display aspect ratio        : 16:9
Frame rate mode             : Constant
Frame rate                  : 23.976 (24000/1001) FPS
Standard                    : NTSC
Color space                 : YUV
Chroma subsampling          : 4:2:0
Bit depth                   : 8 bits
Scan type                   : Progressive
Bits/(Pixel*Frame)          : 0.362
Stream size                 : 11.4 GiB (79%)
Title                       : Kikoriki: Team Invincible aka Smeshariki: Nachalo
Language                    : Russian
Default                     : Yes
Forced                      : No
Color range                 : Limited
Color primaries             : BT.709
Transfer characteristics    : BT.709
Matrix coefficients         : BT.709

Audio #1
ID                          : 2
Format                      : DTS
Format/Info                 : Digital Theater Systems
Format profile              : MA / Core
Mode                        : 16
Format settings, Endianness : Big
Codec ID                    : A_DTS
Duration                    : 1 h 30 min
Bit rate mode               : Variable / Constant
Bit rate                    : 2 250 kb/s / 1 509 kb/s
Channel(s)                  : 6 channels
Channel positions           : Front: L C R, Side: L R, LFE
Sampling rate               : 48.0 kHz
Frame rate                  : 93.750 FPS (512 spf)
Bit depth                   : 16 bits
Compression mode            : Lossless / Lossy
Stream size                 : 1.43 GiB (10%)
Title                       : Turkish
Language                    : Turkish
Default                     : Yes
Forced                      : No

Audio #2
ID                          : 3
Format                      : DTS
Format/Info                 : Digital Theater Systems
Format profile              : MA / Core
Mode                        : 16
Format settings, Endianness : Big
Codec ID                    : A_DTS
Duration                    : 1 h 30 min
Bit rate mode               : Variable / Constant
Bit rate                    : 2 472 kb/s / 1 509 kb/s
Channel(s)                  : 6 channels
Channel positions           : Front: L C R, Side: L R, LFE
Sampling rate               : 48.0 kHz
Frame rate                  : 93.750 FPS (512 spf)
Bit depth                   : 16 bits
Compression mode            : Lossless / Lossy
Stream size                 : 1.57 GiB (11%)
Title                       : Russian
Language                    : Russian
Default                     : No
Forced                      : No

[Image: 46926772305_7724bdc8be_b.jpg]

[Image: 32899038777_f05cc7212a_b.jpg]

[Image: tdown.png]

For Only Vip Members

Kikoriki Team Invincible (2011) Bluray Remux 1080p AVC DTS-HD MA 5.1 VIP
Reply


Possibly Related Threads…
Thread Author Replies Views Last Post
  Team America World Police (2004) Bluray Remux 1080p AVC DTS-HD MA 5.1 admin 0 1,080 05-15-2019, 07:07 PM
Last Post: admin

Forum Jump:


Users browsing this thread: 1 Guest(s)

Powered By MyBB
Theme By Audentio Design
Updated By iAndrew | 2018