Thread Rating:
  • 0 Vote(s) - 0 Average
  • 1
  • 2
  • 3
  • 4
  • 5

[-]
Tags
judgment bluray avc 1080p night hd ma 1 1993 remux dts 5

  Judgment Night (1993) Bluray Remux 1080p AVC DTS-HD MA 5.1
#1
Judgment Night (1993) Bluray Remux 1080p AVC DTS-HD MA 5.1

[Image: tt0107286.jpg]

[Image: imdb.png]
https://www.imdb.com/title/tt0107286/

[Image: info.png]
Judgment Night 1993 EN.mkv
Format                      : Matroska
Format version              : Version 4 / Version 2
File size                   : 17.8 GiB
Duration                    : 1 h 49 min
Overall bit rate mode       : Variable
Overall bit rate            : 23.2 Mb/s
Movie name                  : Judgment Night
Encoded date                : UTC 2017-01-19 17:28:44
Writing application         : mkvmerge v9.6.0 ('Slave To Your Mind') 64bit
Writing library             : libebml v1.3.4 + libmatroska v1.4.5

Video
ID                          : 1
Format                      : AVC
Format/Info                 : Advanced Video Codec
Format profile              : [email protected]
Format settings, CABAC      : Yes
Format settings, ReFrames   : 4 frames
Codec ID                    : V_MPEG4/ISO/AVC
Duration                    : 1 h 49 min
Bit rate mode               : Variable
Bit rate                    : 21.0 Mb/s
Maximum bit rate            : 35.0 Mb/s
Width                       : 1 920 pixels
Height                      : 1 080 pixels
Display aspect ratio        : 16:9
Frame rate mode             : Constant
Frame rate                  : 23.976 (24000/1001) FPS
Standard                    : NTSC
Color space                 : YUV
Chroma subsampling          : 4:2:0
Bit depth                   : 8 bits
Scan type                   : Progressive
Bits/(Pixel*Frame)          : 0.422
Stream size                 : 16.1 GiB (91%)
Title                       : Judgment Night
Language                    : English
Default                     : Yes
Forced                      : No
Color range                 : Limited
Color primaries             : BT.709
Transfer characteristics    : BT.709
Matrix coefficients         : BT.709

Audio
ID                          : 2
Format                      : DTS
Format/Info                 : Digital Theater Systems
Format profile              : MA / Core
Mode                        : 16
Format settings, Endianness : Big
Codec ID                    : A_DTS
Duration                    : 1 h 49 min
Bit rate mode               : Variable / Constant
Bit rate                    : 2 156 kb/s / 1 509 kb/s
Channel(s)                  : 6 channels
Channel positions           : Front: L C R, Side: L R, LFE
Sampling rate               : 48.0 kHz
Frame rate                  : 93.750 FPS (512 spf)
Bit depth                   : 16 bits
Compression mode            : Lossless / Lossy
Stream size                 : 1.65 GiB (9%)
Title                       : English
Language                    : English
Default                     : Yes
Forced                      : No

Text #1
ID                          : 3
Format                      : PGS
Muxing mode                 : zlib
Codec ID                    : S_HDMV/PGS
Codec ID/Info               : Picture based subtitle format used on BDs/HD-DVDs
Duration                    : 1 h 45 min
Bit rate                    : 5 369 b/s
Count of elements           : 2326
Stream size                 : 4.04 MiB (0%)
Title                       : English
Language                    : English
Default                     : No
Forced                      : No

Text #2
ID                          : 4
Format                      : PGS
Muxing mode                 : zlib
Codec ID                    : S_HDMV/PGS
Codec ID/Info               : Picture based subtitle format used on BDs/HD-DVDs
Duration                    : 1 h 42 min
Bit rate                    : 13.0 kb/s
Count of elements           : 2362
Stream size                 : 9.51 MiB (0%)
Title                       : Turkish
Language                    : Turkish
Default                     : Yes
Forced                      : No

[Image: vlcsnap-error341-jpg-e9749a3976eb9139fa8...e6466e.jpg]

[Image: vlcsnap-error403-jpg-c9a8a7996e6ae21ced4...5d4ba9.jpg]

[Image: tdown.png]

For Only Vip Members

Judgment Night (1993) Bluray Remux 1080p AVC DTS-HD MA 5.1 VIP
Reply


Possibly Related Threads…
Thread Author Replies Views Last Post
  Red Rock West 1993 1080p Blu-ray Remux AVC FLAC 2.0 - KRaLiMaRKo KAiJu 0 42 11-27-2020, 08:22 AM
Last Post: KAiJu
  Night of the Living Dead (1990) Bluray Remux 1080p AVC DTS-HD MA 5.1 admin 1 1,178 03-27-2020, 10:43 AM
Last Post: prodigalson1
  Long Days Journey Into Night (2018) Bluray Remux 1080p TR-EN AVC DTS-HD MA 5.1-BdC admin 0 996 12-21-2019, 07:23 PM
Last Post: admin
  When a Stranger Calls Back (1993) Bluray Remux 1080p AVC DTS-HD MA 2.0 admin 0 889 08-23-2019, 04:11 PM
Last Post: admin
  A Perfect World (1993) Bluray Remux 1080p AVC DTS-HD MA 5.1 admin 0 780 08-11-2019, 09:53 AM
Last Post: admin

Forum Jump:


Users browsing this thread: 1 Guest(s)

Powered By MyBB
Theme By Audentio Design
Updated By iAndrew | 2018