Thread Rating:
  • 0 Vote(s) - 0 Average
  • 1
  • 2
  • 3
  • 4
  • 5

[-]
Tags
dd mnemonic bluray 1995 avc 1080p 1 remux 5 johnny

 
  Johnny Mnemonic (1995) Bluray Remux 1080p AVC DD 5.1
#1
Johnny Mnemonic (1995) Bluray Remux 1080p AVC DD 5.1

[Image: tt0113481.jpg]

[Image: imdb.png]
https://www.imdb.com/title/tt0113481/

[Image: info.png]
Johnny Mnemonic 1995 EN.mkv
Format                      : Matroska
Format version              : Version 4 / Version 2
File size                   : 17.7 GiB
Duration                    : 1 h 37 min
Overall bit rate            : 26.1 Mb/s
Movie name                  : Johnny Mnemonic
Encoded date                : UTC 2017-10-15 11:56:45
Writing application         : mkvmerge v17.0.0 ('Be Ur Friend') 64-bit
Writing library             : libebml v1.3.5 + libmatroska v1.4.8

Video
ID                          : 1
Format                      : AVC
Format/Info                 : Advanced Video Codec
Format profile              : [email protected]
Format settings             : CABAC / 4 Ref Frames
Format settings, CABAC      : Yes
Format settings, ReFrames   : 4 frames
Codec ID                    : V_MPEG4/ISO/AVC
Duration                    : 1 h 36 min
Bit rate mode               : Constant
Bit rate                    : 27.0 Mb/s
Width                       : 1 920 pixels
Height                      : 1 080 pixels
Display aspect ratio        : 16:9
Frame rate mode             : Constant
Frame rate                  : 23.976 (24000/1001) FPS
Color space                 : YUV
Chroma subsampling          : 4:2:0
Bit depth                   : 8 bits
Scan type                   : Progressive
Bits/(Pixel*Frame)          : 0.543
Stream size                 : 17.5 GiB (99%)
Title                       : Johnny Mnemonic
Language                    : English
Default                     : Yes
Forced                      : No

Audio
ID                          : 2
Format                      : AC-3
Format/Info                 : Audio Coding 3
Codec ID                    : A_AC3
Duration                    : 1 h 37 min
Bit rate mode               : Constant
Bit rate                    : 320 kb/s
Channel(s)                  : 6 channels
Channel positions           : Front: L C R, Side: L R, LFE
Sampling rate               : 48.0 kHz
Frame rate                  : 31.250 FPS (1536 SPF)
Bit depth                   : 16 bits
Compression mode            : Lossy
Stream size                 : 223 MiB (1%)
Title                       : English
Language                    : English
Service kind                : Complete Main
Default                     : Yes
Forced                      : No

Text #1
ID                          : 3
Format                      : PGS
Muxing mode                 : zlib
Codec ID                    : S_HDMV/PGS
Codec ID/Info               : Picture based subtitle format used on BDs/HD-DVDs
Duration                    : 1 h 29 min
Bit rate                    : 22.5 kb/s
Count of elements           : 1661
Stream size                 : 14.4 MiB (0%)
Title                       : English
Language                    : English
Default                     : No
Forced                      : No

Text #2
ID                          : 4
Format                      : PGS
Muxing mode                 : zlib
Codec ID                    : S_HDMV/PGS
Codec ID/Info               : Picture based subtitle format used on BDs/HD-DVDs
Duration                    : 1 h 30 min
Bit rate                    : 20.7 kb/s
Count of elements           : 1608
Stream size                 : 13.5 MiB (0%)
Title                       : Turkish
Language                    : Turkish
Default                     : Yes
Forced                      : No

[Image: 46926398805_c866a3948d_b.jpg]

[Image: 33965248408_65e2a4926e_b.jpg]

[Image: tdown.png]

For Only Vip Members

Johnny Mnemonic (1995) Bluray Remux 1080p AVC DD 5.1 VIP
Reply


Possibly Related Threads…
Thread Author Replies Views Last Post
  Wild Bill 1995 1080p Remux AVC DTS-HD MA 5.1-playBD KAiJu 0 2 05-19-2022, 01:14 PM
Last Post: KAiJu
  Richard III 1995 1080p Blu-ray Remux AVC DTS-HD MA 5.1 - KRaLiMaRKo KAiJu 0 33 04-24-2022, 10:07 AM
Last Post: KAiJu
  Nick of Time 1995 1080p Blu-ray Remux AVC DTS-HD MA 5.1-HDT KAiJu 0 25 04-20-2022, 12:22 PM
Last Post: KAiJu
  Unstrung Heroes 1995 BluRay Remux 1080p AVC DTS-HD MA 2 0-OlSTiLe KAiJu 0 43 04-10-2022, 10:44 PM
Last Post: KAiJu
  The Tuskegee Airmen 1995 1080p Blu-ray Remux AVC DTS-HD MA 5.1 - KRaLiMaRKo KAiJu 0 38 04-06-2022, 11:51 AM
Last Post: KAiJu

Forum Jump:


Users browsing this thread: 1 Guest(s)

Powered By MyBB
RSS RSS Syndication
Updated By iAndrew | 2022