Thread Rating:
  • 0 Vote(s) - 0 Average
  • 1
  • 2
  • 3
  • 4
  • 5

[-]
Tags
kirmizisi istanbul bluray aka avc 1080p 2017 hd ma 1 remux dts 5 rosso

 
  Istanbul Kirmizisi aka Rosso Istanbul (2017) Bluray Remux 1080p AVC DTS-HD MA 5.1
#1
Istanbul Kirmizisi aka Rosso Istanbul (2017) Bluray Remux 1080p AVC DTS-HD MA 5.1

[Image: tt5927352.jpg]

[Image: imdb.png]
https://www.imdb.com/title/tt5927352/

[Image: info.png]
Istanbul Kirmizisi aka Rosso Istanbul 2017 TR IT.mkv
Format                      : Matroska
Format version              : Version 4 / Version 2
File size                   : 20.0 GiB
Duration                    : 1 h 53 min
Overall bit rate mode       : Variable
Overall bit rate            : 25.2 Mb/s
Movie name                  : Istanbul Kirmizisi aka Rosso Istanbul
Encoded date                : UTC 2017-06-20 19:27:28
Writing application         : mkvmerge v12.0.0 ('Trust / Lust') 64bit
Writing library             : libebml v1.3.4 + libmatroska v1.4.5

Video
ID                          : 1
Format                      : AVC
Format/Info                 : Advanced Video Codec
Format profile              : [email protected]
Format settings, CABAC      : Yes
Format settings, ReFrames   : 4 frames
Format settings, GOP        : M=3, N=24
Codec ID                    : V_MPEG4/ISO/AVC
Duration                    : 1 h 53 min
Bit rate mode               : Variable
Bit rate                    : 19.9 Mb/s
Maximum bit rate            : 35.0 Mb/s
Width                       : 1 920 pixels
Height                      : 1 080 pixels
Display aspect ratio        : 16:9
Frame rate mode             : Constant
Frame rate                  : 23.976 (24000/1001) FPS
Standard                    : NTSC
Color space                 : YUV
Chroma subsampling          : 4:2:0
Bit depth                   : 8 bits
Scan type                   : Progressive
Bits/(Pixel*Frame)          : 0.401
Stream size                 : 15.9 GiB (79%)
Title                       : Istanbul Kirmizisi aka Rosso Istanbul
Language                    : Turkish
Default                     : Yes
Forced                      : No
Color range                 : Limited
Color primaries             : BT.709
Transfer characteristics    : BT.709
Matrix coefficients         : BT.709

Audio #1
ID                          : 2
Format                      : DTS
Format/Info                 : Digital Theater Systems
Format profile              : MA / Core
Mode                        : 16
Format settings, Endianness : Big
Codec ID                    : A_DTS
Duration                    : 1 h 53 min
Bit rate mode               : Variable / Constant
Bit rate                    : 1 920 kb/s / 1 509 kb/s
Channel(s)                  : 6 channels
Channel positions           : Front: L C R, Side: L R, LFE
Sampling rate               : 48.0 kHz
Frame rate                  : 93.750 FPS (512 spf)
Bit depth                   : 16 bits
Compression mode            : Lossless / Lossy
Stream size                 : 1.52 GiB (8%)
Title                       : Italian
Language                    : Italian
Default                     : No
Forced                      : No

Audio #2
ID                          : 3
Format                      : DTS
Format/Info                 : Digital Theater Systems
Format profile              : MA / Core
Mode                        : 16
Format settings, Endianness : Big
Codec ID                    : A_DTS
Duration                    : 1 h 53 min
Bit rate mode               : Variable / Constant
Bit rate                    : 3 367 kb/s / 1 509 kb/s
Channel(s)                  : 6 channels
Channel positions           : Front: L C R, Side: L R, LFE
Sampling rate               : 48.0 kHz
Frame rate                  : 93.750 FPS (512 spf)
Bit depth                   : 24 bits
Compression mode            : Lossless / Lossy
Stream size                 : 2.68 GiB (13%)
Title                       : Turkish
Language                    : Turkish
Default                     : Yes
Forced                      : No

[Image: vlcsnap-error020-jpg-9fd8a50cae4c32bba58...ff544f.jpg]

[Image: vlcsnap-error994-jpg-dad228e60fe881150d9...46c8ea.jpg]

[Image: tdown.png]

For Only Vip Members

Istanbul Kirmizisi aka Rosso Istanbul (2017) Bluray Remux 1080p AVC DTS-HD MA 5.1 VIP
Reply


Forum Jump:


Users browsing this thread: 1 Guest(s)

Powered By MyBB
RSS RSS Syndication
Updated By iAndrew | 2022