Thread Rating:
  • 0 Vote(s) - 0 Average
  • 1
  • 2
  • 3
  • 4
  • 5

[-]
Tags
bluray 2002 avc irreversible 1080p 1 remux dts 5

  Irreversible (2002) Bluray Remux 1080p AVC DTS 5.1
#1
Irreversible (2002) Bluray Remux 1080p AVC DTS 5.1

[Image: tt0290673.jpg]

[Image: imdb.png]
https://www.imdb.com/title/tt0290673/

[Image: info.png]
Irreversible aka Irréversible 2002 FR.mkv
Format                      : Matroska
Format version              : Version 4 / Version 2
File size                   : 18.5 GiB
Duration                    : 1 h 37 min
Overall bit rate mode       : Variable
Overall bit rate            : 27.2 Mb/s
Movie name                  : Irreversible aka Irréversible
Encoded date                : UTC 2018-02-14 18:43:50
Writing application         : mkvmerge v20.0.0 ('I Am The Sun') 64-bit
Writing library             : libebml v1.3.5 + libmatroska v1.4.8

Video
ID                          : 1
Format                      : AVC
Format/Info                 : Advanced Video Codec
Format profile              : [email protected]
Format settings             : CABAC / 4 Ref Frames
Format settings, CABAC      : Yes
Format settings, ReFrames   : 4 frames
Codec ID                    : V_MPEG4/ISO/AVC
Duration                    : 1 h 37 min
Bit rate mode               : Variable
Bit rate                    : 25.2 Mb/s
Maximum bit rate            : 35.0 Mb/s
Width                       : 1 920 pixels
Height                      : 1 080 pixels
Display aspect ratio        : 16:9
Frame rate mode             : Constant
Frame rate                  : 24.000 FPS
Color space                 : YUV
Chroma subsampling          : 4:2:0
Bit depth                   : 8 bits
Scan type                   : Progressive
Bits/(Pixel*Frame)          : 0.507
Stream size                 : 17.1 GiB (93%)
Title                       : Irreversible aka Irréversible
Language                    : French
Default                     : Yes
Forced                      : No
Color range                 : Limited
Color primaries             : BT.709
Transfer characteristics    : BT.709
Matrix coefficients         : BT.709

Audio
ID                          : 2
Format                      : DTS
Format/Info                 : Digital Theater Systems
Format profile              : MA / Core
Codec ID                    : A_DTS
Duration                    : 1 h 37 min
Bit rate mode               : Variable / Constant
Bit rate                    : 1 959 kb/s / 1 509 kb/s
Channel(s)                  : 6 channels
Channel positions           : Front: L C R, Side: L R, LFE
Sampling rate               : 48.0 kHz
Frame rate                  : 93.750 FPS (512 SPF)
Bit depth                   : 16 bits
Compression mode            : Lossless / Lossy
Stream size                 : 1.33 GiB (7%)
Title                       : French
Language                    : French
Default                     : Yes
Forced                      : No

Text #1
ID                          : 3
Format                      : PGS
Muxing mode                 : zlib
Codec ID                    : S_HDMV/PGS
Codec ID/Info               : Picture based subtitle format used on BDs/HD-DVDs
Duration                    : 1 h 32 min
Bit rate                    : 41.5 kb/s
Count of elements           : 1450
Stream size                 : 27.3 MiB (0%)
Title                       : English
Language                    : English
Default                     : No
Forced                      : No

Text #2
ID                          : 4
Format                      : PGS
Muxing mode                 : zlib
Codec ID                    : S_HDMV/PGS
Codec ID/Info               : Picture based subtitle format used on BDs/HD-DVDs
Duration                    : 1 h 32 min
Bit rate                    : 26.2 kb/s
Count of elements           : 1884
Stream size                 : 17.3 MiB (0%)
Title                       : Turkish
Language                    : Turkish
Default                     : Yes
Forced                      : No

[Image: 47085430334_11c94c3a33_b.jpg]

[Image: 32930599177_7d55995a22_b.jpg]

[Image: tdown.png]

For Only Vip Members

Irreversible (2002) Bluray Remux 1080p AVC DTS 5.1 VIP
Reply


Possibly Related Threads…
Thread Author Replies Views Last Post
  The Ring 1-2-3 (2002-2017) Bluray Remux 1080p AVC DTS 5.1 admin 1 475 03-24-2020, 04:03 AM
Last Post: Batiburrillo
  Undercover Brother (2002) Bluray Remux 1080p AVC DTS-HD MA 5.1 admin 0 427 08-24-2019, 12:44 PM
Last Post: admin
  Naked Weapon (2002) Bluray Remux 1080p AVC TrueHD 7.1 admin 0 314 08-23-2019, 09:21 AM
Last Post: admin
  28 Days Later (2002) Bluray Remux 1080p TR EN AVC DTS-HD MA 5.1 admin 0 379 08-18-2019, 05:38 PM
Last Post: admin
  Solaris (2002) Bluray Remux 1080p AVC DTS-HD MA 5.1 admin 0 411 07-18-2019, 04:46 PM
Last Post: admin

Forum Jump:


Users browsing this thread: 1 Guest(s)

Powered By MyBB
Theme By Audentio Design
Updated By iAndrew | 2018