Thread Rating:
  • 0 Vote(s) - 0 Average
  • 1
  • 2
  • 3
  • 4
  • 5

[-]
Tags
bluray avc 1080p 7 the hd ma woods into 1 remux 2014 dts

  Into the Woods (2014) Bluray Remux 1080p AVC DTS-HD MA 7.1
#1
Into the Woods (2014) Bluray Remux 1080p AVC DTS-HD MA 7.1

[Image: tt2180411.jpg]

[Image: imdb.png]
https://www.imdb.com/title/tt2180411/

[Image: info.png]
Into the Woods 2014 EN.mkv
Format                      : Matroska
Format version              : Version 4 / Version 2
File size                   : 28.6 GiB
Duration                    : 2 h 4 min
Overall bit rate mode       : Variable
Overall bit rate            : 32.8 Mb/s
Movie name                  : Into the Woods
Encoded date                : UTC 2015-07-08 23:13:27
Writing application         : mkvmerge v8.1.0 ('Psychedelic Postcard') 64bit
Writing library             : libebml v1.3.1 + libmatroska v1.4.2

Video
ID                          : 1
Format                      : AVC
Format/Info                 : Advanced Video Codec
Format profile              : [email protected]
Format settings, CABAC      : Yes
Format settings, ReFrames   : 4 frames
Codec ID                    : V_MPEG4/ISO/AVC
Duration                    : 2 h 4 min
Bit rate mode               : Variable
Bit rate                    : 27.7 Mb/s
Maximum bit rate            : 35.0 Mb/s
Width                       : 1 920 pixels
Height                      : 1 080 pixels
Display aspect ratio        : 16:9
Frame rate mode             : Constant
Frame rate                  : 23.976 (24000/1001) FPS
Color space                 : YUV
Chroma subsampling          : 4:2:0
Bit depth                   : 8 bits
Scan type                   : Progressive
Bits/(Pixel*Frame)          : 0.557
Stream size                 : 24.1 GiB (84%)
Title                       : Into the Woods
Language                    : English
Default                     : Yes
Forced                      : No

Audio
ID                          : 2
Format                      : DTS
Format/Info                 : Digital Theater Systems
Format profile              : MA / Core
Mode                        : 16
Format settings, Endianness : Big
Codec ID                    : A_DTS
Duration                    : 2 h 4 min
Bit rate mode               : Variable / Constant
Bit rate                    : 5 134 kb/s / 1 509 kb/s
Channel(s)                  : 8 channels / 6 channels
Channel positions           : Front: L C R, Side: L R, Back: L R, LFE / Front: L C R, Side: L R, LFE
Sampling rate               : 48.0 kHz
Frame rate                  : 93.750 FPS (512 spf)
Bit depth                   : 24 bits
Compression mode            : Lossless / Lossy
Stream size                 : 4.47 GiB (16%)
Title                       : English
Language                    : English
Default                     : Yes
Forced                      : No

Text #1
ID                          : 3
Format                      : PGS
Muxing mode                 : zlib
Codec ID                    : S_HDMV/PGS
Codec ID/Info               : Picture based subtitle format used on BDs/HD-DVDs
Duration                    : 1 h 58 min
Bit rate                    : 17.2 kb/s
Count of elements           : 4734
Stream size                 : 14.7 MiB (0%)
Title                       : English
Language                    : English
Default                     : No
Forced                      : No

Text #2
ID                          : 4
Format                      : PGS
Muxing mode                 : zlib
Codec ID                    : S_HDMV/PGS
Codec ID/Info               : Picture based subtitle format used on BDs/HD-DVDs
Duration                    : 1 h 56 min
Bit rate                    : 14.5 kb/s
Count of elements           : 2312
Stream size                 : 12.0 MiB (0%)
Title                       : Turkish
Language                    : Turkish
Default                     : Yes
Forced                      : No

[Image: vlcsnap-error500-jpg-b673de459f673789c5c...c4b233.jpg]

[Image: vlcsnap-error978-jpg-59bb57606d50163b6ec...2177aa.jpg]

[Image: tdown.png]

For Only Vip Members

Into the Woods (2014) Bluray Remux 1080p AVC DTS-HD MA 7.1 VIP
Reply


Possibly Related Threads…
Thread Author Replies Views Last Post
  The Cabin in the Woods (2012) Bluray Remux 1080p VC-1 DTS-HD MA 5.1 admin 0 879 06-30-2019, 08:55 AM
Last Post: admin

Forum Jump:


Users browsing this thread: 1 Guest(s)

Powered By MyBB
Theme By Audentio Design
Updated By iAndrew | 2018