Thread Rating:
  • 0 Vote(s) - 0 Average
  • 1
  • 2
  • 3
  • 4
  • 5

[-]
Tags
bluray avc 1080p fr inspector bellamy hd ma 2 dts tr 2009

 
  Inspector Bellamy (2009) Bluray 1080p TR-FR AVC DTS-HD MA 2.0
#1
Inspector Bellamy (2009) Bluray 1080p TR-FR AVC DTS-HD MA 2.0

[Image: tt1188983.jpg]

[Image: imdb.png]
https://www.imdb.com/title/tt1188983/

[Image: info.png]
Inspector Bellamy 2009 TR FR.mkv
Format                      : Matroska
Format version              : Version 4 / Version 2
File size                   : 20.6 GiB
Duration                    : 1 h 45 min
Overall bit rate mode       : Variable
Overall bit rate            : 27.9 Mb/s
Encoded date                : UTC 2014-06-12 19:29:13
Writing application         : mkvmerge v7.0.0 ('Where We Going') 64bit built on Jun  9 2014 15:16:27
Writing library             : libebml v1.3.0 + libmatroska v1.4.1

Video
ID                          : 1
Format                      : AVC
Format/Info                 : Advanced Video Codec
Format profile              : [email protected]
Format settings, CABAC      : Yes
Format settings, ReFrames   : 2 frames
Codec ID                    : V_MPEG4/ISO/AVC
Duration                    : 1 h 45 min
Bit rate mode               : Variable
Bit rate                    : 24.7 Mb/s
Maximum bit rate            : 30.0 Mb/s
Width                       : 1 920 pixels
Height                      : 1 080 pixels
Display aspect ratio        : 16:9
Frame rate mode             : Variable
Frame rate                  : 50.000 FPS
Original frame rate         : 25.000 FPS
Color space                 : YUV
Chroma subsampling          : 4:2:0
Bit depth                   : 8 bits
Scan type                   : Interlaced
Scan type, store method     : Separated fields
Scan order                  : Top Field First
Bits/(Pixel*Frame)          : 0.238
Stream size                 : 18.3 GiB (89%)
Title                       : Inspector Bellamy
Language                    : French
Default                     : Yes
Forced                      : No

Audio #1
ID                          : 2
Format                      : DTS
Format/Info                 : Digital Theater Systems
Format profile              : MA / Core
Mode                        : 16
Format settings, Endianness : Big
Codec ID                    : A_DTS
Duration                    : 1 h 45 min
Bit rate mode               : Variable / Constant
Bit rate                    : 1 569 kb/s / 1 509 kb/s
Channel(s)                  : 2 channels
Channel positions           : Front: L R
Sampling rate               : 48.0 kHz
Frame rate                  : 93.750 FPS (512 spf)
Bit depth                   : 16 bits
Compression mode            : Lossless / Lossy
Stream size                 : 1.16 GiB (6%)
Title                       : Turkish
Language                    : Turkish
Default                     : No
Forced                      : No

Audio #2
ID                          : 3
Format                      : DTS
Format/Info                 : Digital Theater Systems
Format profile              : MA / Core
Mode                        : 16
Format settings, Endianness : Big
Codec ID                    : A_DTS
Duration                    : 1 h 45 min
Bit rate mode               : Variable / Constant
Bit rate                    : 1 570 kb/s / 1 509 kb/s
Channel(s)                  : 2 channels
Channel positions           : Front: L R
Sampling rate               : 48.0 kHz
Frame rate                  : 93.750 FPS (512 spf)
Bit depth                   : 16 bits
Compression mode            : Lossless / Lossy
Stream size                 : 1.16 GiB (6%)
Title                       : French
Language                    : French
Default                     : Yes
Forced                      : No

Text #1
ID                          : 4
Format                      : PGS
Muxing mode                 : zlib
Codec ID                    : S_HDMV/PGS
Codec ID/Info               : Picture based subtitle format used on BDs/HD-DVDs
Duration                    : 1 h 40 min
Bit rate                    : 27.6 kb/s
Count of elements           : 2691
Stream size                 : 19.9 MiB (0%)
Title                       : Turkish
Language                    : Turkish
Default                     : Yes
Forced                      : No

Text #2
ID                          : 5
Format                      : PGS
Muxing mode                 : zlib
Codec ID                    : S_HDMV/PGS
Codec ID/Info               : Picture based subtitle format used on BDs/HD-DVDs
Duration                    : 1 h 40 min
Bit rate                    : 25.2 kb/s
Count of elements           : 3120
Stream size                 : 18.2 MiB (0%)
Title                       : English
Language                    : English
Default                     : No
Forced                      : No

[Image: vlcsnap-error750-jpg-b2ef759695d013b185e...f94e22.jpg]

[Image: vlcsnap-error871-jpg-86c1fe3bea8e4bbfb55...2523a7.jpg]

[Image: tdown.png]

For Only Vip Members

Inspector Bellamy (2009) Bluray 1080p TR-FR AVC DTS-HD MA 2.0 VIP
Reply


Forum Jump:


Users browsing this thread: 1 Guest(s)

Powered By MyBB
RSS RSS Syndication
Updated By iAndrew | 2021