Thread Rating:
  • 0 Vote(s) - 0 Average
  • 1
  • 2
  • 3
  • 4
  • 5

[-]
Tags
mpeg bluray grave spit your 2013 1080p i hd ma 2 remux dts on

 
  I Spit on Your Grave 2 (2013) Bluray Remux 1080p MPEG DTS-HD MA 2.0
#1
I Spit on Your Grave 2 (2013) Bluray Remux 1080p MPEG DTS-HD MA 2.0

[Image: grave2.jpg]

[Image: imdb.png]
https://www.imdb.com/title/tt2537176/

[Image: info.png]
I Spit on Your Grave 02 2013 TR EN.mkv
Format                      : Matroska
Format version              : Version 4 / Version 2
File size                   : 16.2 GiB
Duration                    : 1 h 41 min
Overall bit rate mode       : Variable
Overall bit rate            : 22.9 Mb/s
Movie name                  : I Spit on Your Grave 2
Encoded date                : UTC 2015-01-05 20:05:34
Writing application         : mkvmerge v7.4.0 ('Circles') 64bit built on Dec 12 2014 12:19:56
Writing library             : libebml v1.3.0 + libmatroska v1.4.1

Video
ID                          : 1
Format                      : MPEG Video
Format version              : Version 2
Format profile              : [email protected]
Format settings, BVOP       : Yes
Format settings, Matrix     : Custom
Format settings, GOP        : M=3, N=15
Codec ID                    : V_MPEG2
Codec ID/Info               : MPEG 1 or 2 Video
Duration                    : 1 h 41 min
Bit rate mode               : Variable
Bit rate                    : 19.4 Mb/s
Maximum bit rate            : 30.0 Mb/s
Width                       : 1 920 pixels
Height                      : 1 080 pixels
Display aspect ratio        : 16:9
Frame rate mode             : Constant
Frame rate                  : 23.976 (24000/1001) FPS
Color space                 : YUV
Chroma subsampling          : 4:2:0
Bit depth                   : 8 bits
Scan type                   : Progressive
Compression mode            : Lossy
Bits/(Pixel*Frame)          : 0.391
Time code of first frame    : 00:00:00:00
Time code source            : Group of pictures header
GOP, Open/Closed            : Closed
Stream size                 : 13.7 GiB (85%)
Title                       : I Spit on Your Grave 2
Language                    : English
Default                     : Yes
Forced                      : No

Audio #1
ID                          : 2
Format                      : DTS
Format/Info                 : Digital Theater Systems
Format profile              : MA / Core
Mode                        : 16
Format settings, Endianness : Big
Codec ID                    : A_DTS
Duration                    : 1 h 41 min
Bit rate mode               : Variable / Constant
Bit rate                    : 1 594 kb/s / 1 509 kb/s
Channel(s)                  : 2 channels
Channel positions           : Front: L R
Sampling rate               : 48.0 kHz
Frame rate                  : 93.750 FPS (512 spf)
Bit depth                   : 16 bits
Compression mode            : Lossless / Lossy
Stream size                 : 1.13 GiB (7%)
Title                       : Turkish
Language                    : Turkish
Default                     : No
Forced                      : No

Audio #2
ID                          : 3
Format                      : DTS
Format/Info                 : Digital Theater Systems
Format profile              : MA / Core
Mode                        : 16
Format settings, Endianness : Big
Codec ID                    : A_DTS
Duration                    : 1 h 41 min
Bit rate mode               : Variable / Constant
Bit rate                    : 1 920 kb/s / 1 509 kb/s
Channel(s)                  : 6 channels
Channel positions           : Front: L C R, Side: L R, LFE
Sampling rate               : 48.0 kHz
Frame rate                  : 93.750 FPS (512 spf)
Bit depth                   : 16 bits
Compression mode            : Lossless / Lossy
Stream size                 : 1.35 GiB (8%)
Title                       : English
Language                    : English
Default                     : Yes
Forced                      : No

Text
ID                          : 4
Format                      : PGS
Muxing mode                 : zlib
Codec ID                    : S_HDMV/PGS
Codec ID/Info               : Picture based subtitle format used on BDs/HD-DVDs
Duration                    : 1 h 34 min
Bit rate                    : 7 694 b/s
Count of elements           : 1440
Stream size                 : 5.20 MiB (0%)
Title                       : Turkish
Language                    : Turkish
Default                     : Yes
Forced                      : No

[Image: vlcsnap-error872-jpg-5b933cf2dbca7f8c994...48e6a2.jpg]

[Image: vlcsnap-error982-jpg-443c5a155fec2c951ec...9b31f5.jpg]

[Image: tdown.png]

For Only Vip Members

I Spit on Your Grave 2 (2013) Bluray Remux 1080p MPEG DTS-HD MA 2.0 VIP
Reply


Possibly Related Threads…
Thread Author Replies Views Last Post
  Belle Fille Ploetzlich Schwiegertochter 2020 1080p Blu-ray Remux MPEG-2 DTS-HD MA 5.1 KAiJu 0 5 11-28-2021, 08:25 AM
Last Post: KAiJu
  Volition 2019 1080p Blu-ray Remux MPEG-2 DTS-HD MA 5.1-HDT KAiJu 0 9 11-25-2021, 10:16 AM
Last Post: KAiJu
  The Brown Bunny 2003 1080p BluRay Remux MPEG-2 AC-3-NoGRP KAiJu 0 19 10-31-2021, 09:00 PM
Last Post: KAiJu
  Thunderbird 2019 1080p Blu-ray Remux MPEG-2 DTS-HD MA 2 0-HDT KAiJu 0 30 10-24-2021, 09:22 AM
Last Post: KAiJu
  The Benchwarmers 2006 1080p Blu-ray Remux MPEG-2 DTS-HD MA 5.1 - KRaLiMaRKo KAiJu 0 39 10-22-2021, 07:58 PM
Last Post: KAiJu

Forum Jump:


Users browsing this thread: 1 Guest(s)

Powered By MyBB
RSS RSS Syndication
Updated By iAndrew | 2021