Thread Rating:
  • 0 Vote(s) - 0 Average
  • 1
  • 2
  • 3
  • 4
  • 5

[-]
Tags
2000 bluray christmas grinch avc 1080p the en stole hd ma 1 dts how 5 tr

  How the Grinch Stole Christmas (2000) Bluray 1080p TR-EN AVC DTS-HD MA 5.1
#1
How the Grinch Stole Christmas (2000) Bluray 1080p TR-EN AVC DTS-HD MA 5.1

[Image: grinch1.jpg]

[Image: imdb.png]
https://www.imdb.com/title/tt0170016/

[Image: info.png]
How the Grinch Stole Christmas 2000 TR EN.mkv
Format                      : Matroska
Format version              : Version 4 / Version 2
File size                   : 25.5 GiB
Duration                    : 1 h 44 min
Overall bit rate mode       : Variable
Overall bit rate            : 34.8 Mb/s
Movie name                  : How the Grinch Stole Christmas
Encoded date                : UTC 2015-12-03 19:07:57
Writing application         : mkvmerge v8.3.0 ('Over the Horizon') 64bit
Writing library             : libebml v1.3.1 + libmatroska v1.4.2

Video
ID                          : 1
Format                      : AVC
Format/Info                 : Advanced Video Codec
Format profile              : [email protected]
Format settings, CABAC      : Yes
Format settings, ReFrames   : 4 frames
Format settings, GOP        : M=3, N=12
Codec ID                    : V_MPEG4/ISO/AVC
Duration                    : 1 h 44 min
Bit rate mode               : Variable
Bit rate                    : 29.7 Mb/s
Maximum bit rate            : 32.0 Mb/s
Width                       : 1 920 pixels
Height                      : 1 080 pixels
Display aspect ratio        : 16:9
Frame rate mode             : Constant
Frame rate                  : 23.976 (24000/1001) FPS
Color space                 : YUV
Chroma subsampling          : 4:2:0
Bit depth                   : 8 bits
Scan type                   : Progressive
Bits/(Pixel*Frame)          : 0.598
Stream size                 : 21.8 GiB (86%)
Title                       : How the Grinch Stole Christmas
Language                    : English
Default                     : Yes
Forced                      : No

Audio #1
ID                          : 2
Format                      : DTS
Format/Info                 : Digital Theater Systems
Format profile              : MA / Core
Mode                        : 16
Format settings, Endianness : Big
Codec ID                    : A_DTS
Duration                    : 1 h 44 min
Bit rate mode               : Variable / Constant
Bit rate                    : 4 217 kb/s / 1 509 kb/s
Channel(s)                  : 6 channels
Channel positions           : Front: L C R, Side: L R, LFE
Sampling rate               : 48.0 kHz
Frame rate                  : 93.750 FPS (512 spf)
Bit depth                   : 24 bits
Compression mode            : Lossless / Lossy
Stream size                 : 3.09 GiB (12%)
Title                       : English
Language                    : English
Default                     : Yes
Forced                      : No

Audio #2
ID                          : 3
Format                      : DTS
Format/Info                 : Digital Theater Systems
Mode                        : 16
Format settings, Endianness : Big
Codec ID                    : A_DTS
Duration                    : 1 h 44 min
Bit rate mode               : Constant
Bit rate                    : 768 kb/s
Channel(s)                  : 6 channels
Channel positions           : Front: L C R, Side: L R, LFE
Sampling rate               : 48.0 kHz
Frame rate                  : 93.750 FPS (512 spf)
Bit depth                   : 24 bits
Compression mode            : Lossy
Stream size                 : 576 MiB (2%)
Title                       : Turkish
Language                    : Turkish
Default                     : No
Forced                      : No

Text #1
ID                          : 4
Format                      : PGS
Muxing mode                 : zlib
Codec ID                    : S_HDMV/PGS
Codec ID/Info               : Picture based subtitle format used on BDs/HD-DVDs
Duration                    : 1 h 43 min
Bit rate                    : 11.4 kb/s
Count of elements           : 2842
Stream size                 : 8.47 MiB (0%)
Title                       : English
Language                    : English
Default                     : No
Forced                      : No

[Image: vlcsnap-error319-jpg-075a02b458f7cc090a6...54ff3e.jpg]

[Image: vlcsnap-error462-jpg-06000f9e4eac1fcf403...d371d9.jpg]

[Image: tdown.png]

For Only Vip Members

How the Grinch Stole Christmas (2000) Bluray 1080p TR-EN AVC DTS-HD MA 5.1 VIP
Reply


Possibly Related Threads…
Thread Author Replies Views Last Post
  Boiler Room 2000 1080p Remux AVC DTS-HD MA 7 1-playBD KAiJu 0 68 11-09-2020, 11:56 AM
Last Post: KAiJu
  Black Christmas (2019) Bluray REMUX 1080p AVC DTS-HD MA 5.1-HuSe AbrA 0 575 04-04-2020, 01:41 PM
Last Post: AbrA
  Requiem for a Dream (2000) Bluray REMUX 1080p AVC DTS-HD MA 7.1 admin 0 728 02-14-2020, 09:33 AM
Last Post: admin
  Chicken Run (2000) Bluray Remux 1080p AVC DTS-HD MA 7.1 admin 1 1,067 10-14-2019, 08:46 AM
Last Post: ZENIX
  The Crow Salvation (2000) Bluray Remux 1080p AVC DTS 5.1 admin 0 750 08-30-2019, 12:09 PM
Last Post: admin

Forum Jump:


Users browsing this thread: 1 Guest(s)

Powered By MyBB
Theme By Audentio Design
Updated By iAndrew | 2018