Thread Rating:
  • 0 Vote(s) - 0 Average
  • 1
  • 2
  • 3
  • 4
  • 5

[-]
Tags
a hears bluray who avc 1080p horton en hd ma 1 remux dts 5 tr 2008

 
  Horton Hears a Who (2008) Bluray Remux 1080p TR-EN AVC DTS-HD MA 5.1
#1
Horton Hears a Who (2008) Bluray Remux 1080p TR-EN AVC DTS-HD MA 5.1

[Image: tt0451079.jpg]

[Image: imdb.png]
https://www.imdb.com/title/tt0451079/

[Image: info.png]
Horton Hears a Who! 2008 TR EN.mkv
Format                      : Matroska
Format version              : Version 4 / Version 2
File size                   : 22.1 GiB
Duration                    : 1 h 26 min
Overall bit rate mode       : Variable
Overall bit rate            : 36.7 Mb/s
Movie name                  : Horton Hears a Who!
Encoded date                : UTC 2017-10-31 19:57:52
Writing application         : mkvmerge v16.0.0 ('Protest') 64-bit
Writing library             : libebml v1.3.5 + libmatroska v1.4.8

Video
ID                          : 1
Format                      : AVC
Format/Info                 : Advanced Video Codec
Format profile              : [email protected]
Format settings, CABAC      : Yes
Format settings, ReFrames   : 4 frames
Codec ID                    : V_MPEG4/ISO/AVC
Duration                    : 1 h 26 min
Bit rate mode               : Variable
Bit rate                    : 32.3 Mb/s
Maximum bit rate            : 34.5 Mb/s
Width                       : 1 920 pixels
Height                      : 1 080 pixels
Display aspect ratio        : 16:9
Frame rate mode             : Constant
Frame rate                  : 23.976 (24000/1001) FPS
Color space                 : YUV
Chroma subsampling          : 4:2:0
Bit depth                   : 8 bits
Scan type                   : Progressive
Bits/(Pixel*Frame)          : 0.649
Stream size                 : 19.4 GiB (88%)
Title                       : Horton Hears a Who!
Language                    : English
Default                     : Yes
Forced                      : No
Color range                 : Limited
Color primaries             : BT.709
Transfer characteristics    : BT.709
Matrix coefficients         : BT.709

Audio #1
ID                          : 2
Format                      : DTS
Format/Info                 : Digital Theater Systems
Format profile              : MA / Core
Mode                        : 16
Format settings, Endianness : Big
Codec ID                    : A_DTS
Duration                    : 1 h 26 min
Bit rate mode               : Variable / Constant
Bit rate                    : 3 923 kb/s / 1 509 kb/s
Channel(s)                  : 6 channels
Channel positions           : Front: L C R, Side: L R, LFE
Sampling rate               : 48.0 kHz
Frame rate                  : 93.750 FPS (512 spf)
Bit depth                   : 24 bits
Compression mode            : Lossless / Lossy
Stream size                 : 2.36 GiB (11%)
Title                       : English
Language                    : English
Default                     : Yes
Forced                      : No

Audio #2
ID                          : 3
Format                      : AC-3
Format/Info                 : Audio Coding 3
Format settings, Endianness : Big
Codec ID                    : A_AC3
Duration                    : 1 h 26 min
Bit rate mode               : Constant
Bit rate                    : 448 kb/s
Channel(s)                  : 6 channels
Channel positions           : Front: L C R, Side: L R, LFE
Sampling rate               : 48.0 kHz
Frame rate                  : 31.250 FPS (1536 spf)
Bit depth                   : 16 bits
Compression mode            : Lossy
Stream size                 : 276 MiB (1%)
Title                       : Turkish
Language                    : Turkish
Service kind                : Complete Main
Default                     : No
Forced                      : No

Text #1
ID                          : 4
Format                      : PGS
Muxing mode                 : zlib
Codec ID                    : S_HDMV/PGS
Codec ID/Info               : Picture based subtitle format used on BDs/HD-DVDs
Duration                    : 1 h 20 min
Bit rate                    : 39.9 kb/s
Count of elements           : 2160
Stream size                 : 23.0 MiB (0%)
Title                       : English
Language                    : English
Default                     : No
Forced                      : No

Text #2
ID                          : 5
Format                      : PGS
Muxing mode                 : zlib
Codec ID                    : S_HDMV/PGS
Codec ID/Info               : Picture based subtitle format used on BDs/HD-DVDs
Duration                    : 1 h 20 min
Bit rate                    : 42.6 kb/s
Count of elements           : 2170
Stream size                 : 24.5 MiB (0%)
Title                       : Turkish
Language                    : Turkish
Default                     : Yes
Forced                      : No

[Image: vlcsnap-error370-jpg-d73e8ab123fa7149714...36ab16.jpg]

[Image: vlcsnap-error457-jpg-4db32f844ae5489f7bc...5c4802.jpg]

[Image: tdown.png]

For Only Vip Members

Horton Hears a Who (2008) Bluray Remux 1080p TR-EN AVC DTS-HD MA 5.1 VIP
Reply


Possibly Related Threads…
Thread Author Replies Views Last Post
  A Bunch of Amateurs 2008 1080i Blu-ray Remux AVC DTS-HD MA 5.1 - KRaLiMaRKo KAiJu 0 68 03-05-2022, 02:04 PM
Last Post: KAiJu
  Vinyan 2008 1080p Remux AVC DTS-HD MA 5.1-playBD KAiJu 0 67 02-02-2022, 06:25 AM
Last Post: KAiJu
  Seven Pounds 2008 1080p Blu-ray Remux AVC TrueHD 5.1 - KRaLiMaRKo KAiJu 0 77 11-06-2021, 09:35 PM
Last Post: KAiJu
  Pistol Whipped (2008) Bluray REMUX 1080p AVC DTS-HD MA 5.1-HUS AbrA 0 111 10-20-2021, 10:35 PM
Last Post: AbrA
  What Just Happened 2008 1080p Blu-ray Remux AVC DTS-HD MA 5.1-HDT KAiJu 0 134 10-06-2021, 06:33 AM
Last Post: KAiJu

Forum Jump:


Users browsing this thread: 1 Guest(s)

Powered By MyBB
RSS RSS Syndication
Updated By iAndrew | 2022