Thread Rating:
  • 0 Vote(s) - 0 Average
  • 1
  • 2
  • 3
  • 4
  • 5

[-]
Tags
henry bluray horrid avc 1080p the en movie hd ma 1 2011 remux dts 5 tr

 
  Horrid Henry The Movie (2011) Bluray Remux 1080p TR-EN AVC DTS-HD MA 5.1
#1
Horrid Henry The Movie (2011) Bluray Remux 1080p TR-EN AVC DTS-HD MA 5.1

[Image: tt1684555.jpg]

[Image: imdb.png]
https://www.imdb.com/title/tt1684555/

[Image: info.png]
Horrid Henry The Movie 2011 TR EN.mkv
Format                      : Matroska
Format version              : Version 4 / Version 2
File size                   : 14.1 GiB
Duration                    : 1 h 32 min
Overall bit rate mode       : Variable
Overall bit rate            : 21.8 Mb/s
Encoded date                : UTC 2014-07-31 07:40:49
Writing application         : mkvmerge v7.1.0 ('Good Love') 64bit built on Jul 27 2014 13:06:55
Writing library             : libebml v1.3.0 + libmatroska v1.4.1

Video
ID                          : 1
Format                      : AVC
Format/Info                 : Advanced Video Codec
Format profile              : [email protected]
Format settings, CABAC      : Yes
Format settings, ReFrames   : 3 frames
Format settings, GOP        : M=1, N=12
Codec ID                    : V_MPEG4/ISO/AVC
Duration                    : 1 h 32 min
Bit rate mode               : Variable
Bit rate                    : 17.9 Mb/s
Maximum bit rate            : 25.0 Mb/s
Width                       : 1 920 pixels
Height                      : 1 080 pixels
Display aspect ratio        : 16:9
Frame rate mode             : Constant
Frame rate                  : 23.976 (24000/1001) FPS
Color space                 : YUV
Chroma subsampling          : 4:2:0
Bit depth                   : 8 bits
Scan type                   : Progressive
Bits/(Pixel*Frame)          : 0.361
Stream size                 : 11.6 GiB (82%)
Title                       : Horrid Henry The Movie
Language                    : English
Default                     : Yes
Forced                      : No

Audio #1
ID                          : 2
Format                      : DTS
Format/Info                 : Digital Theater Systems
Mode                        : 16
Format settings, Endianness : Big
Codec ID                    : A_DTS
Duration                    : 1 h 32 min
Bit rate mode               : Constant
Bit rate                    : 1 509 kb/s
Channel(s)                  : 6 channels
Channel positions           : Front: L C R, Side: L R, LFE
Sampling rate               : 48.0 kHz
Frame rate                  : 93.750 FPS (512 spf)
Bit depth                   : 24 bits
Compression mode            : Lossy
Stream size                 : 1 001 MiB (7%)
Title                       : Turkish
Language                    : Turkish
Default                     : No
Forced                      : No

Audio #2
ID                          : 3
Format                      : DTS
Format/Info                 : Digital Theater Systems
Format profile              : MA / Core
Mode                        : 16
Format settings, Endianness : Big
Codec ID                    : A_DTS
Duration                    : 1 h 32 min
Bit rate mode               : Variable / Constant
Bit rate                    : 2 386 kb/s / 768 kb/s
Channel(s)                  : 6 channels
Channel positions           : Front: L C R, Side: L R, LFE
Sampling rate               : 48.0 kHz
Frame rate                  : 93.750 FPS (512 spf)
Bit depth                   : 24 bits
Compression mode            : Lossless / Lossy
Stream size                 : 1.54 GiB (11%)
Title                       : English
Language                    : English
Default                     : Yes
Forced                      : No

Text #1
ID                          : 4
Format                      : PGS
Muxing mode                 : zlib
Codec ID                    : S_HDMV/PGS
Codec ID/Info               : Picture based subtitle format used on BDs/HD-DVDs
Duration                    : 1 h 25 min
Bit rate                    : 11.2 kb/s
Count of elements           : 1972
Stream size                 : 6.83 MiB (0%)
Title                       : Turkish
Language                    : Turkish
Default                     : Yes
Forced                      : No

Text #2
ID                          : 5
Format                      : PGS
Muxing mode                 : zlib
Codec ID                    : S_HDMV/PGS
Codec ID/Info               : Picture based subtitle format used on BDs/HD-DVDs
Duration                    : 1 h 25 min
Bit rate                    : 11.9 kb/s
Count of elements           : 2174
Stream size                 : 7.27 MiB (0%)
Title                       : English
Language                    : English
Default                     : No
Forced                      : No

[Image: vlcsnap-error432-jpg-b93d596db4bc3afb256...6f9bce.jpg]

[Image: vlcsnap-error552-jpg-6a6b8e19140177783b3...a375b8.jpg]

[Image: tdown.png]

For Only Vip Members

Horrid Henry The Movie (2011) Bluray Remux 1080p TR-EN AVC DTS-HD MA 5.1 VIP
Reply


Possibly Related Threads…
Thread Author Replies Views Last Post
  The SpongeBob Movie Sponge Out of Water 2015 BluRay 1080p DTS-HD MA 5.1 AVC REMUX-Fra KAiJu 0 41 04-15-2022, 10:24 AM
Last Post: KAiJu
  A-ha The Movie 2021 1080i BluRay Remux AVC DTS-HD MA 5.1-SPHD KAiJu 0 77 01-26-2022, 06:42 AM
Last Post: KAiJu
  The Tigger Movie (2000) 1080p BluRay REMUX AVC DTS-HD MA 5.1-TRiToN AbrA 0 98 12-05-2021, 08:58 PM
Last Post: AbrA
  Old Henry 2021 1080p Blu-ray Remux AVC DTS-HD MA 5.1-HDT KAiJu 0 64 11-10-2021, 11:53 AM
Last Post: KAiJu
  PAW Patrol The Movie 2021 1080p BluRay REMUX AVC Atmos-TRiToN KAiJu 0 97 10-29-2021, 09:58 PM
Last Post: KAiJu

Forum Jump:


Users browsing this thread: 1 Guest(s)

Powered By MyBB
RSS RSS Syndication
Updated By iAndrew | 2022