Thread Rating:
  • 0 Vote(s) - 0 Average
  • 1
  • 2
  • 3
  • 4
  • 5

[-]
Tags
bluray avc 1080p hope hd ma and 2 remux 1987 dts glory

 
  Hope and Glory (1987) Bluray Remux 1080p AVC DTS-HD MA 2.0
#1
Hope and Glory (1987) Bluray Remux 1080p AVC DTS-HD MA 2.0

[Image: tt0093209.jpg]

[Image: imdb.png]
https://www.imdb.com/title/tt0093209/

[Image: info.png]
Hope and Glory 1987 EN.mkv
Format                      : Matroska
Format version              : Version 4 / Version 2
File size                   : 21.0 GiB
Duration                    : 1 h 52 min
Overall bit rate mode       : Variable
Overall bit rate            : 26.7 Mb/s
Movie name                  : Hope and Glory
Encoded date                : UTC 2017-11-08 17:26:01
Writing application         : mkvmerge v17.0.0 ('Be Ur Friend') 64-bit
Writing library             : libebml v1.3.5 + libmatroska v1.4.8

Video
ID                          : 1
Format                      : AVC
Format/Info                 : Advanced Video Codec
Format profile              : [email protected]
Format settings, CABAC      : Yes
Format settings, ReFrames   : 2 frames
Codec ID                    : V_MPEG4/ISO/AVC
Duration                    : 1 h 52 min
Bit rate mode               : Variable
Bit rate                    : 24.9 Mb/s
Width                       : 1 920 pixels
Height                      : 1 080 pixels
Display aspect ratio        : 16:9
Frame rate mode             : Constant
Frame rate                  : 23.976 (24000/1001) FPS
Color space                 : YUV
Chroma subsampling          : 4:2:0
Bit depth                   : 8 bits
Scan type                   : Progressive
Bits/(Pixel*Frame)          : 0.502
Stream size                 : 19.6 GiB (93%)
Title                       : Hope and Glory
Language                    : English
Default                     : Yes
Forced                      : No

Audio
ID                          : 2
Format                      : DTS
Format/Info                 : Digital Theater Systems
Format profile              : MA / Core
Mode                        : 16
Format settings, Endianness : Big
Codec ID                    : A_DTS
Duration                    : 1 h 52 min
Bit rate mode               : Variable / Constant
Bit rate                    : 1 716 kb/s / 1 509 kb/s
Channel(s)                  : 2 channels
Channel positions           : Front: L R
Sampling rate               : 48.0 kHz
Frame rate                  : 93.750 FPS (512 spf)
Bit depth                   : 16 bits
Compression mode            : Lossless / Lossy
Stream size                 : 1.35 GiB (6%)
Title                       : English
Language                    : English
Default                     : Yes
Forced                      : No

Text #1
ID                          : 3
Format                      : PGS
Muxing mode                 : zlib
Codec ID                    : S_HDMV/PGS
Codec ID/Info               : Picture based subtitle format used on BDs/HD-DVDs
Duration                    : 1 h 49 min
Bit rate                    : 29.5 kb/s
Count of elements           : 2684
Stream size                 : 23.1 MiB (0%)
Title                       : English
Language                    : English
Default                     : No
Forced                      : No

Text #2
ID                          : 4
Format                      : PGS
Muxing mode                 : zlib
Codec ID                    : S_HDMV/PGS
Codec ID/Info               : Picture based subtitle format used on BDs/HD-DVDs
Duration                    : 1 h 51 min
Bit rate                    : 29.3 kb/s
Count of elements           : 2658
Stream size                 : 23.3 MiB (0%)
Title                       : Tujrkish
Language                    : Turkish
Default                     : Yes
Forced                      : No

[Image: vlcsnap-error119-jpg-5aef3b2c224e70d3c7a...c3939f.jpg]

[Image: vlcsnap-error715-jpg-585b5cdc4177f17459a...2285f7.jpg]

[Image: tdown.png]

For Only Vip Members

Hope and Glory (1987) Bluray Remux 1080p AVC DTS-HD MA 2.0 VIP
Reply


Possibly Related Threads…
Thread Author Replies Views Last Post
  Man on Fire 1987 1080p BluRay REMUX AVC FLAC 2 0-EPSiLON KAiJu 0 34 04-18-2022, 09:23 AM
Last Post: KAiJu
  Cobra Verde 1987 1080p Remux AVC FLAC 2 0-playBD KAiJu 0 37 04-11-2022, 02:13 PM
Last Post: KAiJu
  Hope 2019 1080p Blu-ray Remux AVC DTS-HD MA 5.1-Whales KAiJu 0 26 04-07-2022, 12:23 PM
Last Post: KAiJu
  Street Trash 1987 1080p BluRay REMUX AVC DTS-HD MA 5.1-EPSiLON KAiJu 0 39 04-07-2022, 12:16 PM
Last Post: KAiJu
  City on Fire 1987 1080p BluRay REMUX AVC TrueHD 7 1-TRiToN KAiJu 0 41 04-04-2022, 06:46 AM
Last Post: KAiJu

Forum Jump:


Users browsing this thread: 1 Guest(s)

Powered By MyBB
RSS RSS Syndication
Updated By iAndrew | 2022