Thread Rating:
  • 0 Vote(s) - 0 Average
  • 1
  • 2
  • 3
  • 4
  • 5

[-]
Tags
bluray avc 1080p hellraiser 1 2011 remux 1987 collection 5 truehd

 
  Hellraiser Collection (1987-2011) Bluray Remux 1080p AVC TrueHD 5.1
#1
Hellraiser Collection (1987-2011) Bluray Remux 1080p AVC TrueHD 5.1

[Image: tt0093177.jpg]

[Image: imdb.png]
https://www.imdb.com/title/tt0093177/
https://www.imdb.com/title/tt0095294/
https://www.imdb.com/title/tt0104409/
https://www.imdb.com/title/tt0116514/
https://www.imdb.com/title/tt0229440/
https://www.imdb.com/title/tt0274546/
https://www.imdb.com/title/tt0337636/
https://www.imdb.com/title/tt0354623/
https://www.imdb.com/title/tt1716747/

[Image: info.png]
Hellraiser 01 1987 EN.mkv
Format                      : Matroska
Format version              : Version 4 / Version 2
File size                   : 19.2 GiB
Duration                    : 1 h 33 min
Overall bit rate mode       : Variable
Overall bit rate            : 29.4 Mb/s
Movie name                  : Hellraiser
Encoded date                : UTC 2015-01-26 00:33:51
Writing application         : mkvmerge v7.5.0 ('Glass Culture') 64bit built on Jan  4 2015 16:48:44
Writing library             : libebml v1.3.1 + libmatroska v1.4.2

Video
ID                          : 1
Format                      : AVC
Format/Info                 : Advanced Video Codec
Format profile              : [email protected]
Format settings, CABAC      : Yes
Format settings, ReFrames   : 2 frames
Codec ID                    : V_MPEG4/ISO/AVC
Duration                    : 1 h 33 min
Bit rate mode               : Variable
Bit rate                    : 28.0 Mb/s
Width                       : 1 920 pixels
Height                      : 1 080 pixels
Display aspect ratio        : 16:9
Frame rate mode             : Constant
Frame rate                  : 23.976 (24000/1001) FPS
Color space                 : YUV
Chroma subsampling          : 4:2:0
Bit depth                   : 8 bits
Scan type                   : Progressive
Bits/(Pixel*Frame)          : 0.562
Stream size                 : 18.2 GiB (95%)
Title                       : Hellraiser
Language                    : English
Default                     : Yes
Forced                      : No

Audio
ID                          : 2
Format                      : TrueHD
Codec ID                    : A_TRUEHD
Duration                    : 1 h 33 min
Bit rate mode               : Variable
Bit rate                    : 1 349 kb/s
Maximum bit rate            : 2 871 kb/s
Channel(s)                  : 6 channels
Channel positions           : Front: L C R, Side: L R, LFE
Sampling rate               : 48.0 kHz
Frame rate                  : 1 200.000 FPS (40 spf)
Compression mode            : Lossless
Stream size                 : 901 MiB (5%)
Title                       : English
Language                    : English
Default                     : Yes
Forced                      : No

Text #1
ID                          : 3
Format                      : PGS
Muxing mode                 : zlib
Codec ID                    : S_HDMV/PGS
Codec ID/Info               : Picture based subtitle format used on BDs/HD-DVDs
Duration                    : 1 h 29 min
Bit rate                    : 7 277 b/s
Count of elements           : 1676
Stream size                 : 4.67 MiB (0%)
Title                       : English
Language                    : English
Default                     : No
Forced                      : No

Text #2
ID                          : 4
Format                      : PGS
Muxing mode                 : zlib
Codec ID                    : S_HDMV/PGS
Codec ID/Info               : Picture based subtitle format used on BDs/HD-DVDs
Duration                    : 1 h 28 min
Bit rate                    : 6 455 b/s
Count of elements           : 1308
Stream size                 : 4.07 MiB (0%)
Title                       : Turkish
Language                    : Turkish
Default                     : Yes
Forced                      : No

[Image: vlcsnap-error173-jpg-b9a1bf64c38b667cf02...e606ca.jpg]

[Image: vlcsnap-error509-jpg-0827abdf0bcb1a31c4f...426028.jpg]

[Image: tdown.png]

For Only Vip Members

Hellraiser Collection (1987-2011) Bluray Remux 1080p AVC TrueHD 5.1 VIP
Reply


Possibly Related Threads…
Thread Author Replies Views Last Post
  Sweetie 1989 Criterion Collection Repack 1080p Blu-ray Remux AVC DTS-HD MA 5.1 - KRaL KAiJu 0 16 11-24-2021, 11:19 AM
Last Post: KAiJu
  Five Easy Pieces 1970 Criterion Collection 1080p Blu-ray Remux AVC DTS-HD MA 1.0 - KR KAiJu 0 15 11-17-2021, 02:21 PM
Last Post: KAiJu
  Radio Days 1987 1080p Blu-ray Remux AVC DTS-HD MA 1.0 - KRaLiMaRKo KAiJu 0 11 11-15-2021, 09:00 PM
Last Post: KAiJu
  Scalps 1987 1080p Blu-ray Remux AVC FLAC 2.0 - KRaLiMaRKo KAiJu 0 17 11-04-2021, 12:45 PM
Last Post: KAiJu
  Two-Lane Blacktop 1971 Criterion Collection 1080p Blu-ray Remux AVC DTS-HD MA 5.1 - K KAiJu 0 48 09-28-2021, 01:39 PM
Last Post: KAiJu

Forum Jump:


Users browsing this thread: 1 Guest(s)

Powered By MyBB
RSS RSS Syndication
Updated By iAndrew | 2021