Thread Rating:
  • 0 Vote(s) - 0 Average
  • 1
  • 2
  • 3
  • 4
  • 5

[-]
Tags
bluray iii ii 2013 1080p i hatchet 1 remux dts 5 2006

  Hatchet I-II-III (2006-2013) Bluray Remux 1080p DTS 5.1
#1
Hatchet I-II-III (2006-2013) Bluray Remux 1080p DTS 5.1

[Image: tt0422401.jpg]

[Image: imdb.png]
https://www.imdb.com/title/tt0422401/

[Image: info.png]
Hatchet II 2010 EN.mkv
Format                      : Matroska
Format version              : Version 4 / Version 2
File size                   : 15.0 GiB
Duration                    : 1 h 22 min
Overall bit rate            : 26.2 Mb/s
Movie name                  : Hatchet II
Encoded date                : UTC 2018-02-01 18:33:26
Writing application         : mkvmerge v20.0.0 ('I Am The Sun') 64-bit
Writing library             : libebml v1.3.5 + libmatroska v1.4.8

Video
ID                          : 1
Format                      : MPEG Video
Format version              : Version 2
Format profile              : [email protected]
Format settings             : BVOP
Format settings, BVOP       : Yes
Format settings, Matrix     : Default
Format settings, GOP        : M=3, N=15
Codec ID                    : V_MPEG2
Codec ID/Info               : MPEG 1 or 2 Video
Duration                    : 1 h 22 min
Bit rate mode               : Constant
Bit rate                    : 24.0 Mb/s
Width                       : 1 920 pixels
Height                      : 1 080 pixels
Display aspect ratio        : 16:9
Frame rate mode             : Constant
Frame rate                  : 24.000 FPS
Standard                    : NTSC
Color space                 : YUV
Chroma subsampling          : 4:2:0
Bit depth                   : 8 bits
Scan type                   : Progressive
Compression mode            : Lossy
Bits/(Pixel*Frame)          : 0.482
Time code of first frame    : 00:00:00:00
Time code source            : Group of pictures header
GOP, Open/Closed            : Open
GOP, Open/Closed of first f : Closed
Stream size                 : 13.8 GiB (92%)
Title                       : Hatchet II
Language                    : English
Default                     : Yes
Forced                      : No
Color primaries             : BT.709
Transfer characteristics    : BT.709
Matrix coefficients         : BT.709

Audio
ID                          : 2
Format                      : DTS
Format/Info                 : Digital Theater Systems
Format profile              : MA / ES Matrix / Core
Codec ID                    : A_DTS
Duration                    : 1 h 22 min
Bit rate mode               : Variable / Constant / Constant
Bit rate                    : 2 173 kb/s / 768 kb/s / 768 kb/s
Channel(s)                  : 8 channels / 7 channels / 6 channels
Channel positions           : Front: L C R, Side: L R, Back: L R, LFE / Front: L C R, Side: L R, Back: C, LFE / Front: L C R, Side: L R, LFE
Sampling rate               : 48.0 kHz
Frame rate                  : 93.750 FPS (512 SPF)
Bit depth                   : 16 bits
Compression mode            : Lossless / Lossy / Lossy
Stream size                 : 1.25 GiB (8%)
Title                       : English
Language                    : English
Default                     : Yes
Forced                      : No

Text
ID                          : 3
Format                      : PGS
Muxing mode                 : zlib
Codec ID                    : S_HDMV/PGS
Codec ID/Info               : Picture based subtitle format used on BDs/HD-DVDs
Duration                    : 1 h 16 min
Bit rate                    : 35.8 kb/s
Count of elements           : 2386
Stream size                 : 19.6 MiB (0%)
Title                       : Turkish
Language                    : Turkish
Default                     : Yes
Forced                      : No

[Image: 47078418094_c4230ee797_b.jpg]

[Image: 47867924871_cfee44d840_b.jpg]

[Image: tdown.png]

For Only Vip Members

Hatchet I-II-III (2006-2013) Bluray Remux 1080p DTS 5.1 VIP
Reply


Possibly Related Threads…
Thread Author Replies Views Last Post
  Firewall (2006) Bluray Remux 1080p VC-1 DD 5.1 admin 0 326 08-30-2019, 11:25 AM
Last Post: admin
  Tekkon Kinkurito (2006) Bluray REmux 1080p JP EN AVC DD 5.1 admin 0 327 08-24-2019, 11:17 AM
Last Post: admin
  When a Stranger Calls (2006) Bluray Remux 1080p AVC DD 5.1 admin 0 351 08-23-2019, 04:18 PM
Last Post: admin
  See No Evil 1-2 (2006-2014) Bluray Remux 1080p AVC DTS-HD MA 7.1 admin 0 381 08-23-2019, 02:18 PM
Last Post: admin
  Payback Straight Up Directors Cut (2006) Bluray Remux 1080p MPEG DD 5.1 admin 0 409 08-23-2019, 01:59 PM
Last Post: admin

Forum Jump:


Users browsing this thread: 1 Guest(s)

Powered By MyBB
Theme By Audentio Design
Updated By iAndrew | 2018