Thread Rating:
  • 0 Vote(s) - 0 Average
  • 1
  • 2
  • 3
  • 4
  • 5

[-]
Tags
death bluray happy day avc 1080p 2017 hd ma 1 remux dts 5

  Happy Death Day (2017) Bluray Remux 1080p AVC DTS-HD MA 5.1
#1
Happy Death Day (2017) Bluray Remux 1080p AVC DTS-HD MA 5.1

[Image: tt5308322.jpg]

[Image: imdb.png]
https://www.imdb.com/title/tt5308322/

[Image: info.png]
Happy Death Day 2017 EN.mkv
Format                      : Matroska
Format version              : Version 4 / Version 2
File size                   : 23.8 GiB
Duration                    : 1 h 36 min
Overall bit rate mode       : Variable
Overall bit rate            : 35.4 Mb/s
Movie name                  : Happy Death Day
Encoded date                : UTC 2018-01-10 18:33:44
Writing application         : mkvmerge v19.0.0 ('Brave Captain') 64-bit
Writing library             : libebml v1.3.5 + libmatroska v1.4.8

Video
ID                          : 1
Format                      : AVC
Format/Info                 : Advanced Video Codec
Format profile              : [email protected]
Format settings             : CABAC / 4 Ref Frames
Format settings, CABAC      : Yes
Format settings, ReFrames   : 4 frames
Codec ID                    : V_MPEG4/ISO/AVC
Duration                    : 1 h 36 min
Bit rate mode               : Variable
Bit rate                    : 31.4 Mb/s
Maximum bit rate            : 35.0 Mb/s
Width                       : 1 920 pixels
Height                      : 1 080 pixels
Display aspect ratio        : 16:9
Frame rate mode             : Constant
Frame rate                  : 23.976 (24000/1001) FPS
Color space                 : YUV
Chroma subsampling          : 4:2:0
Bit depth                   : 8 bits
Scan type                   : Progressive
Bits/(Pixel*Frame)          : 0.632
Stream size                 : 21.1 GiB (89%)
Title                       : Happy Death Day
Language                    : English
Default                     : Yes
Forced                      : No

Audio
ID                          : 2
Format                      : DTS
Format/Info                 : Digital Theater Systems
Format profile              : MA / Core
Codec ID                    : A_DTS
Duration                    : 1 h 36 min
Bit rate mode               : Variable / Constant
Bit rate                    : 3 840 kb/s / 1 509 kb/s
Channel(s)                  : 6 channels
Channel positions           : Front: L C R, Side: L R, LFE
Sampling rate               : 48.0 kHz
Frame rate                  : 93.750 FPS (512 SPF)
Bit depth                   : 24 bits
Compression mode            : Lossless / Lossy
Stream size                 : 2.61 GiB (11%)
Title                       : English
Language                    : English
Default                     : Yes
Forced                      : No

Text #1
ID                          : 3
Format                      : PGS
Muxing mode                 : zlib
Codec ID                    : S_HDMV/PGS
Codec ID/Info               : Picture based subtitle format used on BDs/HD-DVDs
Duration                    : 1 h 29 min
Bit rate                    : 40.2 kb/s
Count of elements           : 2894
Stream size                 : 25.6 MiB (0%)
Title                       : English SDH
Language                    : English
Default                     : No
Forced                      : No

Text #2
ID                          : 4
Format                      : PGS
Muxing mode                 : zlib
Codec ID                    : S_HDMV/PGS
Codec ID/Info               : Picture based subtitle format used on BDs/HD-DVDs
Duration                    : 1 h 29 min
Bit rate                    : 26.7 kb/s
Count of elements           : 1654
Stream size                 : 17.0 MiB (0%)
Title                       : Turkish
Language                    : Turkish
Default                     : Yes
Forced                      : No

[Image: 33970514088_f9df03ff5c_b.jpg]

[Image: 33970514718_6ca9d7aa1e_b.jpg]

[Image: tdown.png]

For Only Vip Members

Happy Death Day (2017) Bluray Remux 1080p AVC DTS-HD MA 5.1 VIP
Reply


Possibly Related Threads…
Thread Author Replies Views Last Post
  Death Proof (2007) Bluray Remux 1080p AVC DTS-HD MA 5.1 admin 1 853 07-12-2020, 12:03 AM
Last Post: brenoallex
  Death and the Maiden (1994) Bluray Remux 1080p AVC DTS-HD MA 2.0 admin 0 824 08-23-2019, 05:46 PM
Last Post: admin
  Happy Death Day 2U (2019) Bluray Remux 1080p TR EN AVC DTS-HD MA 5.1 admin 0 835 08-08-2019, 09:35 AM
Last Post: admin
  Happy Death Day 2U (2019) Bluray Remux 1080p AVC DTS-HD MA 5.1 admin 0 797 07-30-2019, 05:50 PM
Last Post: admin
  Wake of Death (2004) Bluray Remux 1080p AVC DTS-HD MA 5.1 admin 0 884 07-22-2019, 01:36 PM
Last Post: admin

Forum Jump:


Users browsing this thread: 1 Guest(s)

Powered By MyBB
Theme By Audentio Design
Updated By iAndrew | 2018