Thread Rating:
  • 0 Vote(s) - 0 Average
  • 1
  • 2
  • 3
  • 4
  • 5

[-]
Tags
bluray 1978 avc 1080p 2018 halloween hd ma 1 remux dts 5

 
  Halloween (1978-2018) Bluray Remux 1080p AVC DTS-HD MA 5.1
#1
Halloween (1978-2018) Bluray Remux 1080p AVC DTS-HD MA 5.1

[Image: tt0077651.jpg]

[Image: imdb.png]
https://www.imdb.com/title/tt0077651/
https://www.imdb.com/title/tt0082495/
https://www.imdb.com/title/tt0085636/
https://www.imdb.com/title/tt0095271/
https://www.imdb.com/title/tt0097474/
https://www.imdb.com/title/tt0113253/
https://www.imdb.com/title/tt0120694/
https://www.imdb.com/title/tt0220506/
https://www.imdb.com/title/tt0373883/
https://www.imdb.com/title/tt1311067/
https://www.imdb.com/title/tt1502407/

[Image: info.png]
Halloween 01 1978 EN.mkv
Format                      : Matroska
Format version              : Version 4 / Version 2
File size                   : 19.1 GiB
Duration                    : 1 h 30 min
Overall bit rate mode       : Variable
Overall bit rate            : 30.1 Mb/s
Movie name                  : Halloween
Encoded date                : UTC 2014-09-24 19:06:08
Writing application         : mkvmerge v7.2.0 ('On Every Street') 64bit built on Sep 13 2014 15:52:10
Writing library             : libebml v1.3.0 + libmatroska v1.4.1

Video
ID                          : 1
Format                      : AVC
Format/Info                 : Advanced Video Codec
Format profile              : [email protected]
Format settings, CABAC      : Yes
Format settings, ReFrames   : 2 frames
Format settings, GOP        : M=1, N=10
Codec ID                    : V_MPEG4/ISO/AVC
Duration                    : 1 h 30 min
Bit rate mode               : Variable
Bit rate                    : 28.0 Mb/s
Width                       : 1 920 pixels
Height                      : 1 080 pixels
Display aspect ratio        : 16:9
Frame rate mode             : Constant
Frame rate                  : 23.976 (24000/1001) FPS
Color space                 : YUV
Chroma subsampling          : 4:2:0
Bit depth                   : 8 bits
Scan type                   : Progressive
Bits/(Pixel*Frame)          : 0.564
Stream size                 : 17.8 GiB (93%)
Title                       : Halloween
Language                    : English
Default                     : Yes
Forced                      : No

Audio
ID                          : 2
Format                      : DTS
Format/Info                 : Digital Theater Systems
Format profile              : MA / Core
Mode                        : 16
Format settings, Endianness : Big
Codec ID                    : A_DTS
Duration                    : 1 h 30 min
Bit rate mode               : Variable / Constant
Bit rate                    : 2 006 kb/s / 1 509 kb/s
Channel(s)                  : 6 channels
Channel positions           : Front: L C R, Side: L R, LFE
Sampling rate               : 48.0 kHz
Frame rate                  : 93.750 FPS (512 spf)
Bit depth                   : 16 bits
Compression mode            : Lossless / Lossy
Stream size                 : 1.27 GiB (7%)
Title                       : English
Language                    : English
Default                     : Yes
Forced                      : No

Text #1
ID                          : 3
Format                      : PGS
Muxing mode                 : zlib
Codec ID                    : S_HDMV/PGS
Codec ID/Info               : Picture based subtitle format used on BDs/HD-DVDs
Duration                    : 1 h 26 min
Bit rate                    : 11.2 kb/s
Count of elements           : 1928
Stream size                 : 6.92 MiB (0%)
Title                       : English
Language                    : English
Default                     : No
Forced                      : No

Text #2
ID                          : 4
Format                      : PGS
Muxing mode                 : zlib
Codec ID                    : S_HDMV/PGS
Codec ID/Info               : Picture based subtitle format used on BDs/HD-DVDs
Duration                    : 1 h 24 min
Bit rate                    : 9 276 b/s
Count of elements           : 1456
Stream size                 : 5.62 MiB (0%)
Title                       : Turkish
Language                    : Turkish
Default                     : Yes
Forced                      : No

[Image: vlcsnap-error539-jpg-4006acae553b7ecd0fb...ecad36.jpg]

[Image: vlcsnap-error902-jpg-f9008fc166ccb9a7b78...71f5cd.jpg]

[Image: tdown.png]

For Only Vip Members

Halloween (1978-2018) Bluray Remux 1080p AVC DTS-HD MA 5.1 VIP
Reply
#2
why I can't to do download?
Reply
#3
(04-18-2020, 11:51 PM)jonasjba Wrote: why I can't to do download?

Vip members can download all content.
Reply


Possibly Related Threads…
Thread Author Replies Views Last Post
  Interiors 1978 1080p Blu-ray Remux AVC FLAC 2.0 - KRaLiMaRKo KAiJu 0 36 10-21-2021, 09:33 AM
Last Post: KAiJu
  Midnight Express (1978) Bluray REMUX 1080p AVC TrueHD 5.1-HUS AbrA 0 49 10-04-2021, 11:19 AM
Last Post: AbrA
  The Driver 1978 1080p Blu-ray Remux AVC DTS-HD MA 1.0 - KRaLiMaRKo KAiJu 0 52 09-09-2021, 09:28 AM
Last Post: KAiJu
  Batman The Long Halloween Part Two 2021 1080p BluRay REMUX AVC DTS-HD MA 5.1-TRiToN KAiJu 0 118 08-04-2021, 10:07 AM
Last Post: KAiJu
  Zui quan (1978) Bluray REMUX 1080p AVC LPCM 1.0-HUS AbrA 0 70 06-21-2021, 09:29 PM
Last Post: AbrA

Forum Jump:


Users browsing this thread: 1 Guest(s)

Powered By MyBB
RSS RSS Syndication
Updated By iAndrew | 2021