Thread Rating:
  • 0 Vote(s) - 0 Average
  • 1
  • 2
  • 3
  • 4
  • 5

[-]
Tags
a bluray hachi tale avc 1080p hd ma 1 remux dogs dts 5 2009

  Hachi A Dogs Tale (2009) Bluray Remux 1080p AVC DTS-HD MA 5.1
#1
Hachi A Dogs Tale (2009) Bluray Remux 1080p AVC DTS-HD MA 5.1

[Image: tt1028532.jpg]

[Image: imdb.png]
https://www.imdb.com/title/tt1028532/

[Image: info.png]
Hachi A Dog's Tale 2009 EN.mkv
Format                      : Matroska
Format version              : Version 4 / Version 2
File size                   : 17.3 GiB
Duration                    : 1 h 33 min
Overall bit rate mode       : Variable
Overall bit rate            : 26.6 Mb/s
Movie name                  : Hachi: A Dog's Tale
Encoded date                : UTC 2018-01-13 11:36:29
Writing application         : mkvmerge v19.0.0 ('Brave Captain') 64-bit
Writing library             : libebml v1.3.5 + libmatroska v1.4.8

Video
ID                          : 1
Format                      : AVC
Format/Info                 : Advanced Video Codec
Format profile              : [email protected]
Format settings             : CABAC / 2 Ref Frames
Format settings, CABAC      : Yes
Format settings, ReFrames   : 2 frames
Format settings, GOP        : M=1, N=10
Codec ID                    : V_MPEG4/ISO/AVC
Duration                    : 1 h 33 min
Bit rate mode               : Variable
Bit rate                    : 23.7 Mb/s
Width                       : 1 920 pixels
Height                      : 1 080 pixels
Display aspect ratio        : 16:9
Frame rate mode             : Constant
Frame rate                  : 23.976 (24000/1001) FPS
Color space                 : YUV
Chroma subsampling          : 4:2:0
Bit depth                   : 8 bits
Scan type                   : Progressive
Bits/(Pixel*Frame)          : 0.477
Stream size                 : 15.4 GiB (89%)
Title                       : Hachi: A Dog's Tale
Language                    : English
Default                     : Yes
Forced                      : No

Audio
ID                          : 2
Format                      : DTS
Format/Info                 : Digital Theater Systems
Format profile              : MA / Core
Codec ID                    : A_DTS
Duration                    : 1 h 33 min
Bit rate mode               : Variable / Constant
Bit rate                    : 2 881 kb/s / 1 509 kb/s
Channel(s)                  : 6 channels
Channel positions           : Front: L C R, Side: L R, LFE
Sampling rate               : 48.0 kHz
Frame rate                  : 93.750 FPS (512 SPF)
Bit depth                   : 24 bits
Compression mode            : Lossless / Lossy
Stream size                 : 1.88 GiB (11%)
Title                       : English
Language                    : English
Default                     : Yes
Forced                      : No

Text #1
ID                          : 3
Format                      : PGS
Muxing mode                 : zlib
Codec ID                    : S_HDMV/PGS
Codec ID/Info               : Picture based subtitle format used on BDs/HD-DVDs
Duration                    : 1 h 27 min
Bit rate                    : 28.9 kb/s
Count of elements           : 1792
Stream size                 : 18.2 MiB (0%)
Title                       : English
Language                    : English
Default                     : No
Forced                      : No

Text #2
ID                          : 4
Format                      : PGS
Muxing mode                 : zlib
Codec ID                    : S_HDMV/PGS
Codec ID/Info               : Picture based subtitle format used on BDs/HD-DVDs
Duration                    : 1 h 28 min
Bit rate                    : 24.1 kb/s
Count of elements           : 1998
Stream size                 : 15.2 MiB (0%)
Title                       : Turkish
Language                    : Turkish
Default                     : Yes
Forced                      : No

[Image: 47847591091_025f20e98c_b.jpg]

[Image: 47847591911_e40034f5a1_b.jpg]

[Image: tdown.png]

For Only Vip Members

Hachi A Dogs Tale (2009) Bluray Remux 1080p AVC DTS-HD MA 5.1 VIP
Reply


Possibly Related Threads…
Thread Author Replies Views Last Post
  Blood and Bone 2009 1080p Remux AVC DTS-HD MA 5.1-playBD KAiJu 0 114 10-26-2020, 04:03 PM
Last Post: KAiJu
  Surrogates (2009) Bluray REMUX 1080p AVC DTS-HD MA 5.1-HUSe AbrA 0 387 07-10-2020, 09:50 PM
Last Post: AbrA
  Reservoir Dogs (1992) Bluray REMUX 1080p VC-1 DTS-HD MA 5.1 admin 0 629 02-14-2020, 08:40 PM
Last Post: admin
  The Tale of Princess Kaguya (2013) Bluray Remux 1080p AVC DTS-HD MA5.1-UQ admin 1 1,339 12-14-2019, 06:50 PM
Last Post: nolwestmaas
  A Dogs Journey (2019) Bluray Remux 1080p AVC TrueHD 7.1 admin 0 775 08-31-2019, 07:50 AM
Last Post: admin

Forum Jump:


Users browsing this thread: 1 Guest(s)

Powered By MyBB
Theme By Audentio Design
Updated By iAndrew | 2018