Thread Rating:
  • 0 Vote(s) - 0 Average
  • 1
  • 2
  • 3
  • 4
  • 5

[-]
Tags
old grumpier bluray 1995 1080p hd ma 1 vc remux men dts 5

 
  Grumpier Old Men (1995) Bluray Remux 1080p VC-1 DTS-HD MA 5.1
#1
Grumpier Old Men (1995) Bluray Remux 1080p VC-1 DTS-HD MA 5.1

[Image: tt0113228.jpg]

[Image: imdb.png]
https://www.imdb.com/title/tt0113228/

[Image: info.png]
Grumpier Old Men 1995 EN.mkv
Format                      : Matroska
Format version              : Version 4 / Version 2
File size                   : 17.0 GiB
Duration                    : 1 h 41 min
Overall bit rate            : 24.1 Mb/s
Movie name                  : Grumpier Old Men
Encoded date                : UTC 2017-08-15 22:55:50
Writing application         : mkvmerge v14.0.0 ('Flow') 64bit
Writing library             : libebml v1.3.4 + libmatroska v1.4.5

Video
ID                          : 1
Format                      : VC-1
Format profile              : [email protected]
Codec ID                    : V_MS/VFW/FOURCC / WVC1
Codec ID/Hint               : Microsoft
Duration                    : 1 h 41 min
Bit rate                    : 20.0 Mb/s
Width                       : 1 920 pixels
Height                      : 1 080 pixels
Display aspect ratio        : 16:9
Frame rate mode             : Constant
Frame rate                  : 23.976 (24000/1001) FPS
Color space                 : YUV
Chroma subsampling          : 4:2:0
Bit depth                   : 8 bits
Scan type                   : Progressive
Compression mode            : Lossy
Bits/(Pixel*Frame)          : 0.402
Stream size                 : 14.1 GiB (83%)
Title                       : Grumpier Old Men
Language                    : English
Default                     : Yes
Forced                      : No

Audio
ID                          : 2
Format                      : DTS
Format/Info                 : Digital Theater Systems
Format profile              : MA / Core
Mode                        : 16
Format settings, Endianness : Big
Codec ID                    : A_DTS
Duration                    : 1 h 41 min
Bit rate mode               : Variable / Constant
Bit rate                    : 4 112 kb/s / 1 509 kb/s
Channel(s)                  : 6 channels
Channel positions           : Front: L C R, Side: L R, LFE
Sampling rate               : 48.0 kHz
Frame rate                  : 93.750 FPS (512 spf)
Bit depth                   : 24 bits
Compression mode            : Lossless / Lossy
Stream size                 : 2.90 GiB (17%)
Title                       : English
Language                    : English
Default                     : Yes
Forced                      : No

Text
ID                          : 3
Format                      : PGS
Muxing mode                 : zlib
Codec ID                    : S_HDMV/PGS
Codec ID/Info               : Picture based subtitle format used on BDs/HD-DVDs
Duration                    : 1 h 36 min
Bit rate                    : 27.2 kb/s
Count of elements           : 2676
Stream size                 : 18.7 MiB (0%)
Title                       : Turkish
Language                    : Turkish
Default                     : Yes
Forced                      : No

[Image: vlcsnap-error026-jpg-41f6d999bc5374190fd...1bc20b.jpg]

[Image: vlcsnap-error821-jpg-933e1147ca1316beb20...83e41c.jpg]

[Image: tdown.png]

For Only Vip Members

Grumpier Old Men (1995) Bluray Remux 1080p VC-1 DTS-HD MA 5.1 VIP
Reply


Possibly Related Threads…
Thread Author Replies Views Last Post
  Waterworld 1995 1080p Blu-ray Remux AVC DTS-HD MA 5.1 - KRaLiMaRKo KAiJu 0 37 10-27-2021, 09:50 PM
Last Post: KAiJu
  Welcome to the Dollhouse (1995) Bluray REMUX 1080p AVC DTS-HD MA 2.0-HUS AbrA 0 49 09-27-2021, 10:01 PM
Last Post: AbrA
  Jumanji (1995) Bluray REMUX 1080p AVC DTS-HD MA 5.1-HUS AbrA 0 46 09-08-2021, 11:54 AM
Last Post: AbrA
  Heavyweights 1995 1080p Blu-ray Remux AVC DTS-HD MA 5.1 - KRaLiMaRKo KAiJu 0 54 09-04-2021, 04:28 PM
Last Post: KAiJu
  Clueless 1995 1080p Blu-ray Remux AVC DTS-HD MA 5.1 - KRaLiMaRKo KAiJu 0 51 09-02-2021, 06:33 PM
Last Post: KAiJu

Forum Jump:


Users browsing this thread: 1 Guest(s)

Powered By MyBB
RSS RSS Syndication
Updated By iAndrew | 2021