Thread Rating:
  • 0 Vote(s) - 0 Average
  • 1
  • 2
  • 3
  • 4
  • 5

[-]
Tags
ship bluray 2002 ghost 1080p 1 vc remux 5 truehd

  Ghost Ship (2002) Bluray Remux 1080p VC-1 TrueHD 5.1
#1
Ghost Ship (2002) Bluray Remux 1080p VC-1 TrueHD 5.1

[Image: tt0288477.jpg]

[Image: imdb.png]
https://www.imdb.com/title/tt0288477/

[Image: info.png]
Ghost Ship 2002 EN.mkv
Format                      : Matroska
Format version              : Version 4 / Version 2
File size                   : 13.4 GiB
Duration                    : 1 h 30 min
Overall bit rate mode       : Variable
Overall bit rate            : 21.2 Mb/s
Movie name                  : Mission Impossible II 2000 1080p Blu-ray Remux AVC DTS-HD MA 5.1 - KRaLiMaRKo
Encoded date                : UTC 2014-07-28 01:34:56
Writing application         : mkvmerge v7.0.0 ('Where We Going') 64bit built on Jun  9 2014 15:16:27
Writing library             : libebml v1.3.0 + libmatroska v1.4.1

Video
ID                          : 1
Format                      : VC-1
Format profile              : [email protected]
Codec ID                    : V_MS/VFW/FOURCC / WVC1
Codec ID/Hint               : Microsoft
Duration                    : 1 h 30 min
Bit rate                    : 17.3 Mb/s
Width                       : 1 920 pixels
Height                      : 1 080 pixels
Display aspect ratio        : 16:9
Frame rate mode             : Constant
Frame rate                  : 23.976 (24000/1001) FPS
Color space                 : YUV
Chroma subsampling          : 4:2:0
Bit depth                   : 8 bits
Scan type                   : Progressive
Compression mode            : Lossy
Bits/(Pixel*Frame)          : 0.347
Stream size                 : 10.9 GiB (81%)
Title                       : Ghost Ship
Language                    : English
Default                     : Yes
Forced                      : No

Audio
ID                          : 2
Format                      : TrueHD
Codec ID                    : A_TRUEHD
Duration                    : 1 h 30 min
Bit rate mode               : Variable
Bit rate                    : 3 847 kb/s
Maximum bit rate            : 5 544 kb/s
Channel(s)                  : 6 channels
Channel positions           : Front: L C R, Side: L R, LFE
Sampling rate               : 48.0 kHz
Frame rate                  : 1 200.000 FPS (40 spf)
Compression mode            : Lossless
Stream size                 : 2.44 GiB (18%)
Title                       : English
Language                    : English
Default                     : Yes
Forced                      : No

Text #1
ID                          : 3
Format                      : PGS
Muxing mode                 : zlib
Codec ID                    : S_HDMV/PGS
Codec ID/Info               : Picture based subtitle format used on BDs/HD-DVDs
Duration                    : 1 h 30 min
Bit rate                    : 10.7 kb/s
Count of elements           : 1492
Stream size                 : 6.88 MiB (0%)
Title                       : English
Language                    : English
Default                     : No
Forced                      : No

Text #2
ID                          : 4
Format                      : PGS
Muxing mode                 : zlib
Codec ID                    : S_HDMV/PGS
Codec ID/Info               : Picture based subtitle format used on BDs/HD-DVDs
Duration                    : 1 h 22 min
Bit rate                    : 10.1 kb/s
Count of elements           : 1638
Stream size                 : 6.00 MiB (0%)
Title                       : Turkish
Language                    : Turkish
Default                     : Yes
Forced                      : No

[Image: vlcsnap-error139-jpg-97861abb598758e0df6...b6f1db.jpg]

[Image: vlcsnap-error677-jpg-390518d2295813b5296...8eb8de.jpg]

[Image: tdown.png]

For Only Vip Members

Ghost Ship (2002) Bluray Remux 1080p VC-1 TrueHD 5.1 VIP
Reply


Possibly Related Threads…
Thread Author Replies Views Last Post
  Ali G Indahouse (2002) Bluray REMUX 1080p EN-TR AVC DTS-HD MA 5.1-FGT AbrA 0 492 07-05-2020, 04:49 PM
Last Post: AbrA
  The Ring 1-2-3 (2002-2017) Bluray Remux 1080p AVC DTS 5.1 admin 1 967 03-24-2020, 04:03 AM
Last Post: Batiburrillo
  Undercover Brother (2002) Bluray Remux 1080p AVC DTS-HD MA 5.1 admin 0 885 08-24-2019, 12:44 PM
Last Post: admin
  Naked Weapon (2002) Bluray Remux 1080p AVC TrueHD 7.1 admin 0 729 08-23-2019, 09:21 AM
Last Post: admin
  28 Days Later (2002) Bluray Remux 1080p TR EN AVC DTS-HD MA 5.1 admin 0 847 08-18-2019, 05:38 PM
Last Post: admin

Forum Jump:


Users browsing this thread: 1 Guest(s)

Powered By MyBB
Theme By Audentio Design
Updated By iAndrew | 2018