Thread Rating:
  • 0 Vote(s) - 0 Average
  • 1
  • 2
  • 3
  • 4
  • 5

[-]
Tags
2012 bluray avc 1080p the hd get ma 1 remux dts 5 gringo

  Get the Gringo (2012) Bluray Remux 1080p AVC DTS-HD MA 5.1
#1
Get the Gringo (2012) Bluray Remux 1080p AVC DTS-HD MA 5.1

[Image: tt1567609.jpg]

[Image: imdb.png]
https://www.imdb.com/title/tt1567609/

[Image: info.png]
Get the Gringo 2012 EN.mkv
Format                      : Matroska
Format version              : Version 4 / Version 2
File size                   : 24.0 GiB
Duration                    : 1 h 35 min
Overall bit rate mode       : Variable
Overall bit rate            : 35.8 Mb/s
Movie name                  : Get the Gringo
Encoded date                : UTC 2015-07-15 20:37:19
Writing application         : mkvmerge v8.1.0 ('Psychedelic Postcard') 64bit
Writing library             : libebml v1.3.1 + libmatroska v1.4.2

Video
ID                          : 1
Format                      : AVC
Format/Info                 : Advanced Video Codec
Format profile              : [email protected]
Format settings, CABAC      : Yes
Format settings, ReFrames   : 2 frames
Codec ID                    : V_MPEG4/ISO/AVC
Duration                    : 1 h 35 min
Bit rate mode               : Variable
Bit rate                    : 32.1 Mb/s
Maximum bit rate            : 40.0 Mb/s
Width                       : 1 920 pixels
Height                      : 1 080 pixels
Display aspect ratio        : 16:9
Frame rate mode             : Constant
Frame rate                  : 23.976 (24000/1001) FPS
Color space                 : YUV
Chroma subsampling          : 4:2:0
Bit depth                   : 8 bits
Scan type                   : Progressive
Bits/(Pixel*Frame)          : 0.646
Stream size                 : 21.5 GiB (90%)
Title                       : Get the Gringo
Language                    : English
Default                     : Yes
Forced                      : No

Audio
ID                          : 2
Format                      : DTS
Format/Info                 : Digital Theater Systems
Format profile              : MA / Core
Mode                        : 16
Format settings, Endianness : Big
Codec ID                    : A_DTS
Duration                    : 1 h 35 min
Bit rate mode               : Variable / Constant
Bit rate                    : 3 667 kb/s / 1 509 kb/s
Channel(s)                  : 6 channels
Channel positions           : Front: L C R, Side: L R, LFE
Sampling rate               : 48.0 kHz
Frame rate                  : 93.750 FPS (512 spf)
Bit depth                   : 24 bits
Compression mode            : Lossless / Lossy
Stream size                 : 2.46 GiB (10%)
Title                       : English
Language                    : English
Default                     : Yes
Forced                      : No

Text #1
ID                          : 3
Format                      : PGS
Muxing mode                 : zlib
Codec ID                    : S_HDMV/PGS
Codec ID/Info               : Picture based subtitle format used on BDs/HD-DVDs
Duration                    : 1 h 35 min
Bit rate                    : 12.0 kb/s
Count of elements           : 2796
Stream size                 : 8.21 MiB (0%)
Title                       : English
Language                    : English
Default                     : No
Forced                      : No

Text #2
ID                          : 4
Format                      : PGS
Muxing mode                 : zlib
Codec ID                    : S_HDMV/PGS
Codec ID/Info               : Picture based subtitle format used on BDs/HD-DVDs
Duration                    : 1 h 27 min
Bit rate                    : 11.7 kb/s
Count of elements           : 1770
Stream size                 : 7.32 MiB (0%)
Title                       : Turkish
Language                    : Turkish
Default                     : Yes
Forced                      : No

[Image: vlcsnap-error749-jpg-3f702848eb84eeaed1e...10f44d.jpg]

[Image: vlcsnap-error891-jpg-933291a219a0acdbebd...c27cb3.jpg]

[Image: tdown.png]

For Only Vip Members

Get the Gringo (2012) Bluray Remux 1080p AVC DTS-HD MA 5.1 VIP
Reply


Possibly Related Threads…
Thread Author Replies Views Last Post
  Taken 2 (2012) Bluray REMUX 1080p AVC DTS-HD MA 5.1-HUSe AbrA 0 401 07-14-2020, 04:44 PM
Last Post: AbrA
  Studio Sex (2012) Bluray Remux 1080p AVC DTS 5.1 admin 0 723 09-08-2019, 11:37 AM
Last Post: admin
  The Lucky One (2012) Bluray Remux 1080p TR EN AVC DTS-HD MA 5.1 admin 0 751 08-31-2019, 06:46 AM
Last Post: admin
  The Homesman (2012) Bluray Remux 1080p AVC DTS-HD MA 5.1 admin 0 591 08-31-2019, 06:31 AM
Last Post: admin
  Sinister (2012) Bluray Remux 1080p AVC DTS-HD MA 5.1 admin 0 688 07-31-2019, 09:11 AM
Last Post: admin

Forum Jump:


Users browsing this thread: 1 Guest(s)

Powered By MyBB
Theme By Audentio Design
Updated By iAndrew | 2018