Thread Rating:
  • 0 Vote(s) - 0 Average
  • 1
  • 2
  • 3
  • 4
  • 5

[-]
Tags
a street house bluray willow avc 1080p 2016 hd ma 1 remux from dts 5 on

 
  From a House on Willow Street (2016) Bluray Remux 1080p AVC DTS-HD MA 5.1
#1
From a House on Willow Street (2016) Bluray Remux 1080p AVC DTS-HD MA 5.1

[Image: tt4961380.jpg]

[Image: imdb.png]
https://www.imdb.com/title/tt4961380/

[Image: info.png]
From a House on Willow Street 2016 EN.mkv
Format                      : Matroska
Format version              : Version 4 / Version 2
File size                   : 17.3 GiB
Duration                    : 1 h 26 min
Overall bit rate mode       : Variable
Overall bit rate            : 28.5 Mb/s
Encoded date                : UTC 2017-08-21 15:32:32
Writing application         : mkvmerge v15.0.0 ('Duel with the Devil') 64-bit
Writing library             : libebml v1.3.5 + libmatroska v1.4.5

Video
ID                          : 1
Format                      : AVC
Format/Info                 : Advanced Video Codec
Format profile              : [email protected]
Format settings, CABAC      : Yes
Format settings, ReFrames   : 4 frames
Codec ID                    : V_MPEG4/ISO/AVC
Duration                    : 1 h 26 min
Bit rate mode               : Variable
Bit rate                    : 25.4 Mb/s
Maximum bit rate            : 32.0 Mb/s
Width                       : 1 920 pixels
Height                      : 1 080 pixels
Display aspect ratio        : 16:9
Frame rate mode             : Constant
Frame rate                  : 23.976 (24000/1001) FPS
Color space                 : YUV
Chroma subsampling          : 4:2:0
Bit depth                   : 8 bits
Scan type                   : Progressive
Bits/(Pixel*Frame)          : 0.512
Stream size                 : 15.4 GiB (89%)
Title                       : From a House on Willow Street
Language                    : English
Default                     : Yes
Forced                      : No

Audio
ID                          : 2
Format                      : DTS
Format/Info                 : Digital Theater Systems
Format profile              : MA / Core
Mode                        : 16
Format settings, Endianness : Big
Codec ID                    : A_DTS
Duration                    : 1 h 26 min
Bit rate mode               : Variable / Constant
Bit rate                    : 3 072 kb/s / 1 509 kb/s
Channel(s)                  : 6 channels
Channel positions           : Front: L C R, Side: L R, LFE
Sampling rate               : 48.0 kHz
Frame rate                  : 93.750 FPS (512 spf)
Bit depth                   : 24 bits
Compression mode            : Lossless / Lossy
Stream size                 : 1.87 GiB (11%)
Title                       : English
Language                    : English
Default                     : Yes
Forced                      : No

Text #1
ID                          : 3
Format                      : PGS
Muxing mode                 : zlib
Codec ID                    : S_HDMV/PGS
Codec ID/Info               : Picture based subtitle format used on BDs/HD-DVDs
Duration                    : 1 h 20 min
Bit rate                    : 33.6 kb/s
Count of elements           : 1474
Stream size                 : 19.3 MiB (0%)
Title                       : English
Language                    : English
Default                     : No
Forced                      : No

Text #2
ID                          : 4
Format                      : PGS
Muxing mode                 : zlib
Codec ID                    : S_HDMV/PGS
Codec ID/Info               : Picture based subtitle format used on BDs/HD-DVDs
Duration                    : 1 h 19 min
Bit rate                    : 15.0 kb/s
Count of elements           : 1032
Stream size                 : 8.49 MiB (0%)
Title                       : Turkish
Language                    : Turkish
Default                     : Yes
Forced                      : No

[Image: vlcsnap-error299-jpg-ca0d98a22c30553d94d...89e90d.jpg]

[Image: vlcsnap-error834-jpg-3e76b0fb77174705f3d...0643f2.jpg]

[Image: tdown.png]

For Only Vip Members

From a House on Willow Street (2016) Bluray Remux 1080p AVC DTS-HD MA 5.1 VIP
Reply


Possibly Related Threads…
Thread Author Replies Views Last Post
  A Street Cat Named Bob 2016 1080p Blu-ray Remux AVC DTS-HD MA 5.1 - KRaLiMaRKo KAiJu 0 18 05-09-2022, 06:50 AM
Last Post: KAiJu
  The House of Usher 1960 1080p Blu-ray Remux AVC DTS-HD MA 2 0-HDT KAiJu 0 39 04-28-2022, 09:05 AM
Last Post: KAiJu
  Dont Go In The House 1979 1080p Blu-ray Remux AVC LPCM 1 0-HDT KAiJu 0 40 04-11-2022, 02:09 PM
Last Post: KAiJu
  Street Trash 1987 1080p BluRay REMUX AVC DTS-HD MA 5.1-EPSiLON KAiJu 0 39 04-07-2022, 12:16 PM
Last Post: KAiJu
  The House 2017 1080p Blu-ray Remux AVC DTS-HD MA 5.1 - KRaLiMaRKo KAiJu 0 65 03-10-2022, 06:42 AM
Last Post: KAiJu

Forum Jump:


Users browsing this thread: 1 Guest(s)

Powered By MyBB
RSS RSS Syndication
Updated By iAndrew | 2022