Thread Rating:
  • 0 Vote(s) - 0 Average
  • 1
  • 2
  • 3
  • 4
  • 5

[-]
Tags
fire bluray avc 1080p 2016 free hd ma 1 remux dts 5

 
  Free Fire (2016) Bluray Remux 1080p AVC DTS-HD MA 5.1
#1
Free Fire (2016) Bluray Remux 1080p AVC DTS-HD MA 5.1

[Image: tt4158096.jpg]

[Image: imdb.png]
https://www.imdb.com/title/tt4158096/

[Image: info.png]
Free Fire 2016 EN.mkv
Format                      : Matroska
Format version              : Version 4 / Version 2
File size                   : 19.0 GiB
Duration                    : 1 h 30 min
Overall bit rate mode       : Variable
Overall bit rate            : 30.1 Mb/s
Movie name                  : Free Fire
Encoded date                : UTC 2017-10-14 18:45:11
Writing application         : mkvmerge v17.0.0 ('Be Ur Friend') 64-bit
Writing library             : libebml v1.3.5 + libmatroska v1.4.8

Video
ID                          : 1
Format                      : AVC
Format/Info                 : Advanced Video Codec
Format profile              : [email protected]
Format settings, CABAC      : Yes
Format settings, ReFrames   : 2 frames
Codec ID                    : V_MPEG4/ISO/AVC
Duration                    : 1 h 30 min
Bit rate mode               : Variable
Bit rate                    : 27.9 Mb/s
Width                       : 1 920 pixels
Height                      : 1 080 pixels
Display aspect ratio        : 16:9
Frame rate mode             : Constant
Frame rate                  : 23.976 (24000/1001) FPS
Color space                 : YUV
Chroma subsampling          : 4:2:0
Bit depth                   : 8 bits
Scan type                   : Progressive
Bits/(Pixel*Frame)          : 0.562
Stream size                 : 17.6 GiB (93%)
Title                       : Free Fire
Language                    : English
Default                     : Yes
Forced                      : No

Audio
ID                          : 2
Format                      : DTS
Format/Info                 : Digital Theater Systems
Format profile              : MA / Core
Mode                        : 16
Format settings, Endianness : Big
Codec ID                    : A_DTS
Duration                    : 1 h 30 min
Bit rate mode               : Variable / Constant
Bit rate                    : 2 185 kb/s / 1 509 kb/s
Channel(s)                  : 6 channels
Channel positions           : Front: L C R, Side: L R, LFE
Sampling rate               : 48.0 kHz
Frame rate                  : 93.750 FPS (512 spf)
Bit depth                   : 16 bits
Compression mode            : Lossless / Lossy
Stream size                 : 1.38 GiB (7%)
Title                       : English
Language                    : English
Default                     : Yes
Forced                      : No

Text #1
ID                          : 3
Format                      : PGS
Muxing mode                 : zlib
Codec ID                    : S_HDMV/PGS
Codec ID/Info               : Picture based subtitle format used on BDs/HD-DVDs
Duration                    : 1 h 28 min
Bit rate                    : 30.8 kb/s
Count of elements           : 2227
Stream size                 : 19.5 MiB (0%)
Title                       : English
Language                    : English
Default                     : No
Forced                      : No

Text #2
ID                          : 4
Format                      : PGS
Muxing mode                 : zlib
Codec ID                    : S_HDMV/PGS
Codec ID/Info               : Picture based subtitle format used on BDs/HD-DVDs
Duration                    : 1 h 28 min
Bit rate                    : 27.9 kb/s
Count of elements           : 2227
Stream size                 : 17.7 MiB (0%)
Title                       : Turkish
Language                    : Turkish
Default                     : Yes
Forced                      : No

[Image: vlcsnap-error105-jpg-b5126522c269f00cf20...0b13c4.jpg]

[Image: vlcsnap-error968-jpg-14696f7e2ba8e669e33...cbc892.jpg]

[Image: tdown.png]

For Only Vip Members

Free Fire (2016) Bluray Remux 1080p AVC DTS-HD MA 5.1 VIP
Reply


Possibly Related Threads…
Thread Author Replies Views Last Post
  Man on Fire 1987 1080p BluRay REMUX AVC FLAC 2 0-EPSiLON KAiJu 0 34 04-18-2022, 09:23 AM
Last Post: KAiJu
  City on Fire 1987 1080p BluRay REMUX AVC TrueHD 7 1-TRiToN KAiJu 0 41 04-04-2022, 06:46 AM
Last Post: KAiJu
  Free State of Jones 2016 1080p Blu-ray Remux AVC DTS-HD MA 5.1 - KRaLiMaRKo KAiJu 0 56 01-18-2022, 01:14 PM
Last Post: KAiJu
  Ogon A.K.A Fire 2020 1080p Blu-ray Remux AVC DTS-HD MA 5.1 - KRaLiMaRKo KAiJu 0 95 01-04-2022, 10:01 AM
Last Post: KAiJu
  Raging Fire 2021 1080p Blu-ray Remux AVC TrueHD 7 1-HDT KAiJu 0 101 11-21-2021, 11:03 PM
Last Post: KAiJu

Forum Jump:


Users browsing this thread: 1 Guest(s)

Powered By MyBB
RSS RSS Syndication
Updated By iAndrew | 2022