Thread Rating:
  • 0 Vote(s) - 0 Average
  • 1
  • 2
  • 3
  • 4
  • 5

[-]
Tags
1931 bluray frankenstein avc 1080p hd ma 2 remux dts

  Frankenstein (1931) Bluray Remux 1080p AVC DTS-HD MA 2.0
#1
Frankenstein (1931) Bluray Remux 1080p AVC DTS-HD MA 2.0

[Image: tt0021884.jpg]

[Image: imdb.png]
https://www.imdb.com/title/tt0021884/

[Image: info.png]
Frankenstein 1931 EN.mkv
Format                      : Matroska
Format version              : Version 4 / Version 2
File size                   : 14.0 GiB
Duration                    : 1 h 10 min
Overall bit rate mode       : Variable
Overall bit rate            : 28.5 Mb/s
Movie name                  : Frankenstein
Encoded date                : UTC 2017-06-13 13:11:29
Writing application         : mkvmerge v12.0.0 ('Trust / Lust') 64bit
Writing library             : libebml v1.3.4 + libmatroska v1.4.5

Video
ID                          : 1
Format                      : AVC
Format/Info                 : Advanced Video Codec
Format profile              : [email protected]
Format settings, CABAC      : Yes
Format settings, ReFrames   : 4 frames
Codec ID                    : V_MPEG4/ISO/AVC
Duration                    : 1 h 10 min
Bit rate mode               : Variable
Bit rate                    : 26.6 Mb/s
Maximum bit rate            : 35.0 Mb/s
Width                       : 1 920 pixels
Height                      : 1 080 pixels
Display aspect ratio        : 16:9
Frame rate mode             : Constant
Frame rate                  : 23.976 (24000/1001) FPS
Color space                 : YUV
Chroma subsampling          : 4:2:0
Bit depth                   : 8 bits
Scan type                   : Progressive
Bits/(Pixel*Frame)          : 0.535
Stream size                 : 13.0 GiB (93%)
Title                       : Frankenstein
Language                    : English
Default                     : Yes
Forced                      : No

Audio
ID                          : 2
Format                      : DTS
Format/Info                 : Digital Theater Systems
Format profile              : MA / Core
Mode                        : 16
Format settings, Endianness : Big
Codec ID                    : A_DTS
Duration                    : 1 h 10 min
Bit rate mode               : Variable / Constant
Bit rate                    : 1 847 kb/s / 1 509 kb/s
Channel(s)                  : 2 channels
Channel positions           : Front: L R
Sampling rate               : 48.0 kHz
Frame rate                  : 93.750 FPS (512 spf)
Bit depth                   : 24 bits
Compression mode            : Lossless / Lossy
Stream size                 : 927 MiB (6%)
Title                       : English
Language                    : English
Default                     : Yes
Forced                      : No

Text #1
ID                          : 3
Format                      : PGS
Muxing mode                 : zlib
Codec ID                    : S_HDMV/PGS
Codec ID/Info               : Picture based subtitle format used on BDs/HD-DVDs
Duration                    : 1 h 9 min
Bit rate                    : 9 818 b/s
Count of elements           : 1739
Stream size                 : 4.85 MiB (0%)
Title                       : English
Language                    : English
Default                     : No
Forced                      : No

Text #2
ID                          : 4
Format                      : PGS
Muxing mode                 : zlib
Codec ID                    : S_HDMV/PGS
Codec ID/Info               : Picture based subtitle format used on BDs/HD-DVDs
Duration                    : 1 h 8 min
Bit rate                    : 10.4 kb/s
Count of elements           : 1202
Stream size                 : 5.14 MiB (0%)
Title                       : Turkish
Language                    : Turkish
Default                     : Yes
Forced                      : No

[Image: vlcsnap-error216-jpg-9cc3a599ba4e4ac1b25...882f9f.jpg]

[Image: vlcsnap-error320-jpg-6c3c326137a98888cf2...a1426d.jpg]

[Image: tdown.png]

For Only Vip Members

Frankenstein (1931) Bluray Remux 1080p AVC DTS-HD MA 2.0 VIP
Reply


Possibly Related Threads…
Thread Author Replies Views Last Post
  City Lights (1931) Bluray Remux 1080p AVC DD 1.0 admin 0 807 05-16-2019, 04:57 PM
Last Post: admin
  Dracula (1931) Bluray Remux 1080p AVC DTS-HD MA 2.0 admin 0 933 05-06-2019, 03:13 PM
Last Post: admin

Forum Jump:


Users browsing this thread: 1 Guest(s)

Powered By MyBB
Theme By Audentio Design
Updated By iAndrew | 2018