Thread Rating:
  • 0 Vote(s) - 0 Average
  • 1
  • 2
  • 3
  • 4
  • 5

[-]
Tags
flightplan dd bluray 1080p 1 vc remux 2005 5

 
  Flightplan (2005) Bluray Remux 1080p VC-1 DD 5.1
#1
Flightplan (2005) Bluray Remux 1080p VC-1 DD 5.1

[Image: tt0408790.jpg]

[Image: imdb.png]
https://www.imdb.com/title/tt0408790/

[Image: info.png]
Flightplan 2005 EN.mkv
Format                      : Matroska
Format version              : Version 4 / Version 2
File size                   : 18.0 GiB
Duration                    : 1 h 38 min
Overall bit rate            : 26.3 Mb/s
Movie name                  : Flightplan
Encoded date                : UTC 2015-01-18 19:48:17
Writing application         : mkvmerge v7.5.0 ('Glass Culture') 64bit built on Jan  4 2015 16:48:44
Writing library             : libebml v1.3.1 + libmatroska v1.4.2

Video
ID                          : 1
Format                      : VC-1
Format profile              : [email protected]
Codec ID                    : V_MS/VFW/FOURCC / WVC1
Codec ID/Hint               : Microsoft
Duration                    : 1 h 38 min
Bit rate                    : 25.7 Mb/s
Width                       : 1 920 pixels
Height                      : 1 080 pixels
Display aspect ratio        : 16:9
Frame rate mode             : Constant
Frame rate                  : 23.976 (24000/1001) FPS
Color space                 : YUV
Chroma subsampling          : 4:2:0
Bit depth                   : 8 bits
Scan type                   : Progressive
Compression mode            : Lossy
Bits/(Pixel*Frame)          : 0.517
Stream size                 : 17.6 GiB (98%)
Title                       : Flightplan
Language                    : English
Default                     : Yes
Forced                      : No

Audio
ID                          : 2
Format                      : AC-3
Format/Info                 : Audio Coding 3
Format settings, Endianness : Big
Codec ID                    : A_AC3
Duration                    : 1 h 38 min
Bit rate mode               : Constant
Bit rate                    : 640 kb/s
Channel(s)                  : 6 channels
Channel positions           : Front: L C R, Side: L R, LFE
Sampling rate               : 48.0 kHz
Frame rate                  : 31.250 FPS (1536 spf)
Bit depth                   : 16 bits
Compression mode            : Lossy
Stream size                 : 449 MiB (2%)
Title                       : English
Language                    : English
Service kind                : Complete Main
Default                     : Yes
Forced                      : No

Text #1
ID                          : 3
Format                      : PGS
Muxing mode                 : zlib
Codec ID                    : S_HDMV/PGS
Codec ID/Info               : Picture based subtitle format used on BDs/HD-DVDs
Duration                    : 1 h 29 min
Bit rate                    : 4 317 b/s
Count of elements           : 1547
Stream size                 : 2.76 MiB (0%)
Title                       : English
Language                    : English
Default                     : No
Forced                      : No

Text #2
ID                          : 4
Format                      : PGS
Muxing mode                 : zlib
Codec ID                    : S_HDMV/PGS
Codec ID/Info               : Picture based subtitle format used on BDs/HD-DVDs
Duration                    : 1 h 29 min
Bit rate                    : 10.9 kb/s
Count of elements           : 1678
Stream size                 : 7.01 MiB (0%)
Title                       : Turkish
Language                    : Turkish
Default                     : Yes
Forced                      : No

[Image: vlcsnap-error256-jpg-656ed06d6dac30e54c8...c646d9.jpg]

[Image: vlcsnap-error490-jpg-db54c0ba4860bd31024...8a5b4e.jpg]

[Image: tdown.png]

For Only Vip Members

Flightplan (2005) Bluray Remux 1080p VC-1 DD 5.1 VIP
Reply


Possibly Related Threads…
Thread Author Replies Views Last Post
  Transamerica 2005 BluRay 1080p TrueHD h264 Remux-decibeL KAiJu 0 13 11-15-2021, 08:56 PM
Last Post: KAiJu
  The Fog 2005 1080p Blu-ray Remux AVC DTS-HD MA 5.1 - KRaLiMaRKo KAiJu 0 16 11-12-2021, 07:20 AM
Last Post: KAiJu
  Chaos 2005 1080p Blu-ray Remux AVC FLAC 2.0 - KRaLiMaRKo KAiJu 0 15 11-11-2021, 12:29 PM
Last Post: KAiJu
  Hostel Trilogie 2005-2011 German 1080p DL BluRay Remux-pmHD KAiJu 0 42 10-14-2021, 06:49 AM
Last Post: KAiJu
  The Longest Yard 2005 1080p Blu-ray Remux AVC DTS-HD MA 5.1-HDT KAiJu 0 62 10-03-2021, 08:35 AM
Last Post: KAiJu

Forum Jump:


Users browsing this thread: 1 Guest(s)

Powered By MyBB
RSS RSS Syndication
Updated By iAndrew | 2021