Thread Rating:
  • 0 Vote(s) - 0 Average
  • 1
  • 2
  • 3
  • 4
  • 5

[-]
Tags
fitzcarraldo bluray avc 1080p hd ma 2 remux dts 1982

  Fitzcarraldo (1982) Bluray Remux 1080p AVC DTS-HD MA 2.0
#1
Fitzcarraldo (1982) Bluray Remux 1080p AVC DTS-HD MA 2.0

[Image: tt0083946.jpg]

[Image: imdb.png]
https://www.imdb.com/title/tt0083946/

[Image: info.png]
Fitzcarraldo 1982 EN.mkv
Format                      : Matroska
Format version              : Version 4 / Version 2
File size                   : 21.2 GiB
Duration                    : 2 h 37 min
Overall bit rate mode       : Variable
Overall bit rate            : 19.4 Mb/s
Movie name                  : Fitzcarraldo
Encoded date                : UTC 2017-10-12 17:55:21
Writing application         : mkvmerge v16.0.0 ('Protest') 64-bit
Writing library             : libebml v1.3.5 + libmatroska v1.4.8

Video
ID                          : 1
Format                      : AVC
Format/Info                 : Advanced Video Codec
Format profile              : [email protected]
Format settings             : CABAC / 4 Ref Frames
Format settings, CABAC      : Yes
Format settings, ReFrames   : 4 frames
Codec ID                    : V_MPEG4/ISO/AVC
Duration                    : 2 h 37 min
Bit rate mode               : Variable
Bit rate                    : 17.9 Mb/s
Maximum bit rate            : 27.0 Mb/s
Width                       : 1 920 pixels
Height                      : 1 080 pixels
Display aspect ratio        : 16:9
Frame rate mode             : Constant
Frame rate                  : 23.976 (24000/1001) FPS
Standard                    : NTSC
Color space                 : YUV
Chroma subsampling          : 4:2:0
Bit depth                   : 8 bits
Scan type                   : Progressive
Bits/(Pixel*Frame)          : 0.360
Stream size                 : 19.7 GiB (93%)
Title                       : Fitzcarraldo
Language                    : English
Default                     : Yes
Forced                      : No
Color range                 : Limited
Color primaries             : BT.709
Transfer characteristics    : BT.709
Matrix coefficients         : BT.709

Audio
ID                          : 2
Format                      : DTS
Format/Info                 : Digital Theater Systems
Format profile              : MA / Core
Codec ID                    : A_DTS
Duration                    : 2 h 37 min
Bit rate mode               : Variable / Constant
Bit rate                    : 1 411.2 kb/s / 768 kb/s
Channel(s)                  : 2 channels
Channel positions           : Front: L R
Sampling rate               : 48.0 kHz
Frame rate                  : 93.750 FPS (512 SPF)
Bit depth                   : 24 bits
Compression mode            : Lossless / Lossy
Stream size                 : 1.56 GiB (7%)
Title                       : English
Language                    : English
Default                     : Yes
Forced                      : No

Text
ID                          : 3
Format                      : PGS
Muxing mode                 : zlib
Codec ID                    : S_HDMV/PGS
Codec ID/Info               : Picture based subtitle format used on BDs/HD-DVDs
Duration                    : 2 h 33 min
Bit rate                    : 13.4 kb/s
Count of elements           : 1626
Stream size                 : 14.8 MiB (0%)
Title                       : Turkish
Language                    : Turkish
Default                     : Yes
Forced                      : No

[Image: 47053803814_a255301c9a_b.jpg]

[Image: 47053805484_42c50dd7b1_b.jpg]

[Image: tdown.png]

For Only Vip Members

Fitzcarraldo (1982) Bluray Remux 1080p AVC DTS-HD MA 2.0 VIP
Reply


Possibly Related Threads…
Thread Author Replies Views Last Post
  The New York Ripper (1982) Bluray Remux 1080p AVC DTS-HD MA 7.1 admin 0 807 08-18-2019, 03:07 PM
Last Post: admin
  48 Hrs (1982) Bluray Remux 1080p AVC DD 5.1 admin 0 934 07-03-2019, 06:06 PM
Last Post: admin
  Poltergeist 1-2-3 (1982-1988) Bluray Remux 1080p AVC TrueHD 5.1 admin 0 873 06-25-2019, 08:14 PM
Last Post: admin
  The Slumber Party Massacre 1-2-3 (1982-1990) Bluray Remux 1080p AVC DTS-HD MA 2.0 admin 1 1,119 06-23-2019, 07:20 PM
Last Post: Spectrone
  Creepshow 1-2-3 (1982-2006) Bluray Remux 1080p AVC DTS-HD MA 5.1 admin 0 928 06-06-2019, 01:48 PM
Last Post: admin

Forum Jump:


Users browsing this thread: 1 Guest(s)

Powered By MyBB
Theme By Audentio Design
Updated By iAndrew | 2018