Thread Rating:
  • 0 Vote(s) - 0 Average
  • 1
  • 2
  • 3
  • 4
  • 5

[-]
Tags
bluray avc 1080p hd ma 1 remux firefox dts 5 1982

  Firefox (1982) Bluray Remux 1080p AVC DTS-HD MA 5.1
#1
Firefox (1982) Bluray Remux 1080p AVC DTS-HD MA 5.1

[Image: tt0083943.jpg]

[Image: imdb.png]
https://www.imdb.com/title/tt0083943/

[Image: info.png]
Firefox 1982 EN.mkv
Format                      : Matroska
Format version              : Version 4 / Version 2
File size                   : 23.4 GiB
Duration                    : 2 h 4 min
Overall bit rate mode       : Variable
Overall bit rate            : 26.9 Mb/s
Movie name                  : Firefox
Encoded date                : UTC 2016-05-29 11:59:14
Writing application         : mkvmerge v8.3.0 ('Over the Horizon') 64bit
Writing library             : libebml v1.3.1 + libmatroska v1.4.2

Video
ID                          : 1
Format                      : AVC
Format/Info                 : Advanced Video Codec
Format profile              : [email protected]
Format settings, CABAC      : Yes
Format settings, ReFrames   : 2 frames
Codec ID                    : V_MPEG4/ISO/AVC
Duration                    : 2 h 4 min
Bit rate mode               : Variable
Bit rate                    : 22.9 Mb/s
Width                       : 1 920 pixels
Height                      : 1 080 pixels
Display aspect ratio        : 16:9
Frame rate mode             : Constant
Frame rate                  : 23.976 (24000/1001) FPS
Color space                 : YUV
Chroma subsampling          : 4:2:0
Bit depth                   : 8 bits
Scan type                   : Progressive
Bits/(Pixel*Frame)          : 0.462
Stream size                 : 20.0 GiB (85%)
Title                       : Firefox
Language                    : English
Default                     : Yes
Forced                      : No

Audio
ID                          : 2
Format                      : DTS
Format/Info                 : Digital Theater Systems
Format profile              : MA / Core
Mode                        : 16
Format settings, Endianness : Big
Codec ID                    : A_DTS
Duration                    : 2 h 4 min
Bit rate mode               : Variable / Constant
Bit rate                    : 3 950 kb/s / 1 509 kb/s
Channel(s)                  : 6 channels
Channel positions           : Front: L C R, Side: L R, LFE
Sampling rate               : 48.0 kHz
Frame rate                  : 93.750 FPS (512 spf)
Bit depth                   : 24 bits
Compression mode            : Lossless / Lossy
Stream size                 : 3.44 GiB (15%)
Title                       : English
Language                    : English
Default                     : Yes
Forced                      : No

Text #1
ID                          : 3
Format                      : PGS
Muxing mode                 : zlib
Codec ID                    : S_HDMV/PGS
Codec ID/Info               : Picture based subtitle format used on BDs/HD-DVDs
Duration                    : 2 h 2 min
Bit rate                    : 12.2 kb/s
Count of elements           : 2196
Stream size                 : 10.7 MiB (0%)
Title                       : English
Language                    : English
Default                     : No
Forced                      : No

Text #2
ID                          : 4
Format                      : PGS
Muxing mode                 : zlib
Codec ID                    : S_HDMV/PGS
Codec ID/Info               : Picture based subtitle format used on BDs/HD-DVDs
Duration                    : 2 h 1 min
Bit rate                    : 9 629 b/s
Count of elements           : 1870
Stream size                 : 8.40 MiB (0%)
Title                       : Turkish
Language                    : Turkish
Default                     : Yes
Forced                      : No

[Image: vlcsnap-error401-jpg-6b3bc37724be69c3382...77a057.jpg]

[Image: vlcsnap-error573-jpg-2af96c9552c14339ff4...2bcbfd.jpg]

[Image: tdown.png]

For Only Vip Members

Firefox (1982) Bluray Remux 1080p AVC DTS-HD MA 5.1 VIP
Reply


Possibly Related Threads…
Thread Author Replies Views Last Post
  The New York Ripper (1982) Bluray Remux 1080p AVC DTS-HD MA 7.1 admin 0 797 08-18-2019, 03:07 PM
Last Post: admin
  48 Hrs (1982) Bluray Remux 1080p AVC DD 5.1 admin 0 931 07-03-2019, 06:06 PM
Last Post: admin
  Poltergeist 1-2-3 (1982-1988) Bluray Remux 1080p AVC TrueHD 5.1 admin 0 864 06-25-2019, 08:14 PM
Last Post: admin
  The Slumber Party Massacre 1-2-3 (1982-1990) Bluray Remux 1080p AVC DTS-HD MA 2.0 admin 1 1,113 06-23-2019, 07:20 PM
Last Post: Spectrone
  Creepshow 1-2-3 (1982-2006) Bluray Remux 1080p AVC DTS-HD MA 5.1 admin 0 915 06-06-2019, 01:48 PM
Last Post: admin

Forum Jump:


Users browsing this thread: 1 Guest(s)

Powered By MyBB
Theme By Audentio Design
Updated By iAndrew | 2018