Thread Rating:
  • 0 Vote(s) - 0 Average
  • 1
  • 2
  • 3
  • 4
  • 5

[-]
Tags
fire bluray avc 2013 1080p of anatolia hd ma 1 remux dts 5

 
  Fire of Anatolia (2013) Bluray Remux 1080p AVC DTS-HD MA 5.1
#1
Fire of Anatolia (2013) Bluray Remux 1080p AVC DTS-HD MA 5.1

[Image: tt6450112.jpg]

[Image: imdb.png]
https://www.imdb.com/title/tt6450112/

[Image: info.png]
Fire of Anatolia 2013 TR.mkv
Format                      : Matroska
Format version              : Version 4 / Version 2
File size                   : 12.5 GiB
Duration                    : 1 h 19 min
Overall bit rate mode       : Variable
Overall bit rate            : 22.6 Mb/s
Movie name                  : Fire of Anatolis
Encoded date                : UTC 2015-12-15 22:22:08
Writing application         : mkvmerge v8.3.0 ('Over the Horizon') 64bit
Writing library             : libebml v1.3.1 + libmatroska v1.4.2

Video
ID                          : 1
Format                      : AVC
Format/Info                 : Advanced Video Codec
Format profile              : [email protected]
Format settings, CABAC      : Yes
Format settings, ReFrames   : 4 frames
Codec ID                    : V_MPEG4/ISO/AVC
Duration                    : 1 h 19 min
Bit rate mode               : Variable
Bit rate                    : 20.0 Mb/s
Maximum bit rate            : 28.0 Mb/s
Width                       : 1 920 pixels
Height                      : 1 080 pixels
Display aspect ratio        : 16:9
Frame rate mode             : Constant
Frame rate                  : 23.976 (24000/1001) FPS
Standard                    : NTSC
Color space                 : YUV
Chroma subsampling          : 4:2:0
Bit depth                   : 8 bits
Scan type                   : Progressive
Bits/(Pixel*Frame)          : 0.402
Stream size                 : 11.1 GiB (89%)
Title                       : Fire of Anatolis
Language                    : English
Default                     : Yes
Forced                      : No
Color range                 : Limited
Color primaries             : BT.709
Transfer characteristics    : BT.709
Matrix coefficients         : BT.709

Audio
ID                          : 2
Format                      : DTS
Format/Info                 : Digital Theater Systems
Format profile              : MA / Core
Mode                        : 16
Format settings, Endianness : Big
Codec ID                    : A_DTS
Duration                    : 1 h 19 min
Bit rate mode               : Variable / Constant
Bit rate                    : 2 573 kb/s / 1 509 kb/s
Channel(s)                  : 6 channels
Channel positions           : Front: L C R, Side: L R, LFE
Sampling rate               : 48.0 kHz
Frame rate                  : 93.750 FPS (512 spf)
Bit depth                   : 16 bits
Compression mode            : Lossless / Lossy
Stream size                 : 1.43 GiB (11%)
Title                       : Turkish
Language                    : Turkish
Default                     : Yes
Forced                      : No

Text
ID                          : 3
Format                      : PGS
Muxing mode                 : zlib
Codec ID                    : S_HDMV/PGS
Codec ID/Info               : Picture based subtitle format used on BDs/HD-DVDs
Duration                    : 45 min 34 s
Bit rate                    : 1 070 b/s
Count of elements           : 58
Stream size                 : 357 KiB (0%)
Title                       : English
Language                    : English
Default                     : No
Forced                      : No

[Image: vlcsnap-error186-jpg-9b40df7bf1161e47ddc...4778d6.jpg]

[Image: vlcsnap-error768-jpg-6eae06afbf42cf040eb...de4678.jpg]

[Image: tdown.png]

For Only Vip Members

Fire of Anatolia (2013) Bluray Remux 1080p AVC DTS-HD MA 5.1 VIP
Reply


Possibly Related Threads…
Thread Author Replies Views Last Post
  Raging Fire 2021 1080p Blu-ray Remux AVC TrueHD 7 1-HDT KAiJu 0 29 11-21-2021, 11:03 PM
Last Post: KAiJu
  Rapid Fire 1992 1080p Blu-ray Remux AVC FLAC 2.0 - KRaLiMaRKo KAiJu 0 325 01-06-2021, 11:04 AM
Last Post: KAiJu
  The Girl Who Played with Fire (2009) Bluray Remux 1080p TR SW AVC DD 5.1 admin 0 1,322 07-17-2019, 11:24 AM
Last Post: admin
  Under Fire (1983) Bluray Remux 1080p AVC DTS-HD MA 2.0 admin 0 1,079 06-13-2019, 05:46 PM
Last Post: admin
  Courage Under Fire (1996) Bluray Remux 1080p MPEG DTS-HD MA 5.1 admin 0 1,284 06-13-2019, 11:43 AM
Last Post: admin

Forum Jump:


Users browsing this thread: 1 Guest(s)

Powered By MyBB
RSS RSS Syndication
Updated By iAndrew | 2021