Thread Rating:
  • 0 Vote(s) - 0 Average
  • 1
  • 2
  • 3
  • 4
  • 5

[-]
Tags
vegas las in bluray avc 1080p hd ma and 1 1998 remux dts 5 loathing fear

 
  Fear and Loathing in Las Vegas (1998) Bluray Remux 1080p AVC DTS-HD MA 5.1
#1
Fear and Loathing in Las Vegas (1998) Bluray Remux 1080p AVC DTS-HD MA 5.1

[Image: tt0120669.jpg]

[Image: imdb.png]
https://www.imdb.com/title/tt0120669/

[Image: info.png]
Fear and Loathing in Las Vegas 1998 EN.mkv
Format                      : Matroska
Format version              : Version 4 / Version 2
File size                   : 28.2 GiB
Duration                    : 1 h 58 min
Overall bit rate mode       : Variable
Overall bit rate            : 34.1 Mb/s
Encoded date                : UTC 2014-08-09 21:55:48
Writing application         : mkvmerge v7.1.0 ('Good Love') 64bit built on Jul 27 2014 13:06:55
Writing library             : libebml v1.3.0 + libmatroska v1.4.1

Video
ID                          : 1
Format                      : AVC
Format/Info                 : Advanced Video Codec
Format profile              : [email protected]
Format settings, CABAC      : Yes
Format settings, ReFrames   : 4 frames
Format settings, GOP        : M=3, N=12
Codec ID                    : V_MPEG4/ISO/AVC
Duration                    : 1 h 58 min
Bit rate mode               : Variable
Bit rate                    : 29.8 Mb/s
Maximum bit rate            : 33.0 Mb/s
Width                       : 1 920 pixels
Height                      : 1 080 pixels
Display aspect ratio        : 16:9
Frame rate mode             : Constant
Frame rate                  : 23.976 (24000/1001) FPS
Color space                 : YUV
Chroma subsampling          : 4:2:0
Bit depth                   : 8 bits
Scan type                   : Progressive
Bits/(Pixel*Frame)          : 0.599
Stream size                 : 24.6 GiB (87%)
Title                       : Fear and Loathing in Las Vegas
Language                    : English
Default                     : Yes
Forced                      : No

Audio
ID                          : 2
Format                      : DTS
Format/Info                 : Digital Theater Systems
Format profile              : MA / Core
Mode                        : 16
Format settings, Endianness : Big
Codec ID                    : A_DTS
Duration                    : 1 h 58 min
Bit rate mode               : Variable / Constant
Bit rate                    : 4 248 kb/s / 1 509 kb/s
Channel(s)                  : 6 channels
Channel positions           : Front: L C R, Side: L R, LFE
Sampling rate               : 48.0 kHz
Frame rate                  : 93.750 FPS (512 spf)
Bit depth                   : 24 bits
Compression mode            : Lossless / Lossy
Stream size                 : 3.51 GiB (12%)
Title                       : English
Language                    : English
Default                     : Yes
Forced                      : No

Text #1
ID                          : 3
Format                      : PGS
Muxing mode                 : zlib
Codec ID                    : S_HDMV/PGS
Codec ID/Info               : Picture based subtitle format used on BDs/HD-DVDs
Duration                    : 1 h 57 min
Bit rate                    : 18.2 kb/s
Count of elements           : 4512
Stream size                 : 15.2 MiB (0%)
Title                       : English
Language                    : English
Default                     : No
Forced                      : No

Text #2
ID                          : 4
Format                      : PGS
Muxing mode                 : zlib
Codec ID                    : S_HDMV/PGS
Codec ID/Info               : Picture based subtitle format used on BDs/HD-DVDs
Duration                    : 1 h 57 min
Bit rate                    : 14.0 kb/s
Count of elements           : 3590
Stream size                 : 11.7 MiB (0%)
Title                       : Turkish
Language                    : Turkish
Default                     : Yes
Forced                      : No

[Image: vlcsnap-error348-jpg-9735b6c81db842ff325...edb8af.jpg]

[Image: vlcsnap-error538-jpg-e3b91de33c71404f2e6...8ba9da.jpg]

[Image: tdown.png]

For Only Vip Members

Fear and Loathing in Las Vegas (1998) Bluray Remux 1080p AVC DTS-HD MA 5.1 VIP
Reply


Possibly Related Threads…
Thread Author Replies Views Last Post
  What Dreams May Come 1998 1080p Blu-ray Remux AVC DTS-HD MA 5.1 - KRaLiMaRKo KAiJu 0 45 10-13-2021, 11:55 AM
Last Post: KAiJu
  Who Am I (1998) Bluray Remux 1080p TR-EN AVC DTS-HD MA 5.1 admin 1 1,449 10-11-2021, 04:41 PM
Last Post: Sunnypiglet
  Blast from the Past (1998) Bluray REMUX 1080p AVC DTS-HD MA 5.1-HUS AbrA 0 50 09-18-2021, 07:47 PM
Last Post: AbrA
  Little Voice 1998 1080p Remux AVC DTS-HD MA 5.1-playBD KAiJu 0 46 09-17-2021, 06:17 AM
Last Post: KAiJu
  Phoenix 1998 1080p Blu-ray Remux AVC DD 5 1-HDT KAiJu 0 54 08-03-2021, 12:27 PM
Last Post: KAiJu

Forum Jump:


Users browsing this thread: 1 Guest(s)

Powered By MyBB
RSS RSS Syndication
Updated By iAndrew | 2021