Thread Rating:
  • 0 Vote(s) - 0 Average
  • 1
  • 2
  • 3
  • 4
  • 5

[-]
Tags
family s09 1989 amzn x264 webdl 1080p ddp matters trollhd 1998 2 s01

 
  Family Matters (1989-1998) S01-S09 AMZN WEBDL 1080p DDP 2.0 x264-TrollHD
#1
Family Matters (1989-1998) S01-S09 AMZN WEBDL 1080p DDP 2.0 x264-TrollHD

[Image: tt0096579.jpg]

[Image: imdb.png]
https://www.imdb.com/title/tt0096579/

[Image: info.png]
Family Matters S01 1080p WEB-DL DD+ 2.0 x264-TrollHD
Format                                  : Matroska
Format version                          : Version 4 / Version 2
File size                                : 2.38 GiB
Duration                                : 23 min 42 s
Overall bit rate mode                    : Variable
Overall bit rate                        : 14.4 Mb/s
Movie name                              : Family Matters S01E01
Encoded date                            : UTC 2016-08-28 05:34:28
Writing application                      : mkvmerge v8.3.0 ('Over the Horizon') 64bit
Writing library                          : libebml v1.3.1 + libmatroska v1.4.2

Video
ID                                      : 1
Format                                  : AVC
Format/Info                              : Advanced Video Codec
Format profile                          : [email protected]
Format settings, CABAC                  : Yes
Format settings, ReFrames                : 4 frames
Codec ID                                : V_MPEG4/ISO/AVC
Duration                                : 23 min 42 s
Bit rate mode                            : Variable
Bit rate                                : 14.2 Mb/s
Maximum bit rate                        : 15.0 Mb/s
Width                                    : 1 440 pixels
Height                                  : 1 080 pixels
Display aspect ratio                    : 4:3
Frame rate mode                          : Constant
Frame rate                              : 23.976 (24000/1001) FPS
Color space                              : YUV
Chroma subsampling                      : 4:2:0
Bit depth                                : 8 bits
Scan type                                : Progressive
Bits/(Pixel*Frame)                      : 0.380
Stream size                              : 2.34 GiB (98%)
Title                                    : Family Matters S01E01
Writing library                          : x264 core 148 r2623 d5b2374
Encoding settings                        : cabac=1 / ref=4 / deblock=1:-1:-1 / analyse=0x3:0x133 / me=umh / subme=9 / psy=1 / psy_rd=1.00:0.15 / mixed_ref=1 / me_range=24 / chroma_me=1 / trellis=2 / 8x8dct=1 / cqm=0 / deadzone=21,11 / fast_pskip=1 / chroma_qp_offset=-3 / threads=34 / lookahead_threads=5 / sliced_threads=0 / nr=150 / decimate=1 / interlaced=0 / bluray_compat=0 / constrained_intra=0 / bframes=8 / b_pyramid=2 / b_adapt=2 / b_bias=0 / direct=3 / weightb=1 / open_gop=0 / weightp=2 / keyint=120 / keyint_min=61 / scenecut=0 / intra_refresh=0 / rc_lookahead=120 / rc=crf / mbtree=1 / crf=18.0 / qcomp=0.60 / qpmin=0 / qpmax=69 / qpstep=4 / vbv_maxrate=15000 / vbv_bufsize=31250 / crf_max=0.0 / nal_hrd=vbr / filler=0 / ip_ratio=1.40 / aq=3:1.00
Default                                  : Yes
Forced                                  : No
Color range                              : Limited
Color primaries                          : BT.709
Transfer characteristics                : BT.709
Matrix coefficients                      : BT.709

Audio
ID                                      : 2
Format                                  : E-AC-3
Format/Info                              : Audio Coding 3
Format settings, Endianness              : Big
Codec ID                                : A_EAC3
Duration                                : 23 min 42 s
Bit rate mode                            : Constant
Bit rate                                : 224 kb/s
Channel(s)                              : 2 channels
Channel positions                        : Front: L R
Sampling rate                            : 48.0 kHz
Frame rate                              : 187.500 FPS (256 spf)
Compression mode                        : Lossy
Stream size                              : 38.0 MiB (2%)
Title                                    : English
Language                                : English
Default                                  : Yes
Forced                                  : No

Text
ID                                      : 3
Format                                  : UTF-8
Codec ID                                : S_TEXT/UTF8
Codec ID/Info                            : UTF-8 Plain Text
Duration                                : 22 min 36 s
Bit rate                                : 82 b/s
Count of elements                        : 434
Stream size                              : 13.6 KiB (0%)
Title                                    : English
Language                                : English
Default                                  : No
Forced                                  : No

[Image: GwGVOX.jpg]

[Image: fWLqNf.jpg]

[Image: tdown.png]

For Only Vip Members

Family Matters (1989-1998) S01-S09 AMZN WEBDL 1080p DDP 2.0 x264-TrollHD VIP
Reply


Possibly Related Threads…
Thread Author Replies Views Last Post
  The Big C (2010-2013) S01-S04 AMZN WEBDL 1080p DDP 5.1 H264-AJP69 AbrA 0 3 Yesterday, 09:23 AM
Last Post: AbrA
  Mare of Easttown (2021) S01 AMZN WEBDL 1080p DDP 5.1 H264-SaiTama AbrA 0 7 10-12-2021, 08:48 PM
Last Post: AbrA
  Muhammad Ali (2021) AMZN WEBDL 1080p DDP 5.1 H264 AbrA 0 7 10-08-2021, 04:03 PM
Last Post: AbrA
  Welcome to the Family (2018-2019) S01 NF WEBDL 1080p MULTI DDP 5.1 x264-HUS AbrA 0 17 09-29-2021, 02:00 PM
Last Post: AbrA
  Franklin And Bash (2011-2014) S01-S04 AMZN WEBDL 1080p DDP 5.1 H264-AJP69 AbrA 0 15 09-24-2021, 09:57 AM
Last Post: AbrA

Forum Jump:


Users browsing this thread: 1 Guest(s)

Powered By MyBB
RSS RSS Syndication
Updated By iAndrew | 2021