Thread Rating:
  • 0 Vote(s) - 0 Average
  • 1
  • 2
  • 3
  • 4
  • 5

[-]
Tags
bluray existenz 1999 avc 1080p en hd ma 1 remux dts 5 tr

  eXistenZ (1999) Bluray Remux 1080p TR-EN AVC DTS-HD MA 5.1
#1
eXistenZ (1999) Bluray Remux 1080p TR-EN AVC DTS-HD MA 5.1

[Image: tt0120907.jpg]

[Image: imdb.png]
https://www.imdb.com/title/tt0120907/

[Image: info.png]
eXistenZ 1999 TR EN.mkv
Format                      : Matroska
Format version              : Version 4 / Version 2
File size                   : 25.2 GiB
Duration                    : 1 h 37 min
Overall bit rate mode       : Variable
Overall bit rate            : 37.1 Mb/s
Movie name                  : eXistenZ
Encoded date                : UTC 2017-12-04 21:33:18
Writing application         : mkvmerge v18.0.0 ('Apricity') 64-bit
Writing library             : libebml v1.3.5 + libmatroska v1.4.8

Video
ID                          : 1
Format                      : AVC
Format/Info                 : Advanced Video Codec
Format profile              : [email protected]
Format settings, CABAC      : Yes
Format settings, ReFrames   : 3 frames
Codec ID                    : V_MPEG4/ISO/AVC
Duration                    : 1 h 37 min
Bit rate mode               : Variable
Bit rate                    : 36.0 Mb/s
Width                       : 1 920 pixels
Height                      : 1 080 pixels
Display aspect ratio        : 16:9
Frame rate mode             : Constant
Frame rate                  : 23.976 (24000/1001) FPS
Standard                    : NTSC
Color space                 : YUV
Chroma subsampling          : 4:2:0
Bit depth                   : 8 bits
Scan type                   : Progressive
Bits/(Pixel*Frame)          : 0.724
Stream size                 : 23.5 GiB (93%)
Title                       : eXistenZ
Writing library             : x264pro - Adobe CS Exporter Plug-in
Encoding settings           : cabac=1 / ref=4 / deblock=1:-1:-1 / analyse=0x3:0x133 / me=umh / subme=10 / psy=1 / psy_rd=1.00:0.15 / mixed_ref=1 / me_range=24 / chroma_me=1 / trellis=2 / 8x8dct=1 / cqm=0 / deadzone=21,11 / fast_pskip=1 / chroma_qp_offset=-3 / threads=36 / lookahead_threads=6 / sliced_threads=0 / slices=4 / nr=0 / decimate=1 / interlaced=0 / bluray_compat=1 / constrained_intra=0 / bframes=3 / b_pyramid=1 / b_adapt=2 / b_bias=0 / direct=3 / weightb=1 / open_gop=0 / weightp=1 / keyint=24 / keyint_min=1 / scenecut=40 / intra_refresh=0 / rc_lookahead=24 / rc=cbr / mbtree=1 / bitrate=36000 / ratetol=1.0 / qcomp=0.60 / qpmin=0 / qpmax=69 / qpstep=4 / vbv_maxrate=36000 / vbv_bufsize=30000 / nal_hrd=vbr / ip_ratio=1.40 / aq=1:1.00
Language                    : English
Default                     : Yes
Forced                      : No
Color range                 : Limited
Color primaries             : BT.709
Transfer characteristics    : BT.709
Matrix coefficients         : BT.709

Audio #1
ID                          : 2
Format                      : DTS
Format/Info                 : Digital Theater Systems
Format profile              : MA / Core
Mode                        : 16
Format settings, Endianness : Big
Codec ID                    : A_DTS
Duration                    : 1 h 37 min
Bit rate mode               : Variable / Constant
Bit rate                    : 2 048 kb/s / 1 509 kb/s
Channel(s)                  : 6 channels
Channel positions           : Front: L C R, Side: L R, LFE
Sampling rate               : 48.0 kHz
Frame rate                  : 93.750 FPS (512 spf)
Bit depth                   : 16 bits
Compression mode            : Lossless / Lossy
Stream size                 : 1.39 GiB (6%)
Title                       : English
Language                    : English
Default                     : Yes
Forced                      : No

Audio #2
ID                          : 3
Format                      : AC-3
Format/Info                 : Audio Coding 3
Format settings, Endianness : Big
Codec ID                    : A_AC3
Duration                    : 1 h 37 min
Bit rate mode               : Constant
Bit rate                    : 448 kb/s
Channel(s)                  : 6 channels
Channel positions           : Front: L C R, Side: L R, LFE
Sampling rate               : 48.0 kHz
Frame rate                  : 31.250 FPS (1536 spf)
Bit depth                   : 16 bits
Compression mode            : Lossy
Stream size                 : 311 MiB (1%)
Title                       : Turkish
Language                    : Turkish
Service kind                : Complete Main
Default                     : No
Forced                      : No

Text #1
ID                          : 4
Format                      : PGS
Muxing mode                 : zlib
Codec ID                    : S_HDMV/PGS
Codec ID/Info               : Picture based subtitle format used on BDs/HD-DVDs
Duration                    : 1 h 30 min
Bit rate                    : 27.7 kb/s
Count of elements           : 1908
Stream size                 : 17.9 MiB (0%)
Title                       : English
Language                    : English
Default                     : No
Forced                      : No

Text #2
ID                          : 5
Format                      : PGS
Muxing mode                 : zlib
Codec ID                    : S_HDMV/PGS
Codec ID/Info               : Picture based subtitle format used on BDs/HD-DVDs
Duration                    : 1 h 30 min
Bit rate                    : 20.4 kb/s
Count of elements           : 1312
Stream size                 : 13.2 MiB (0%)
Title                       : Turkish
Language                    : Turkish
Default                     : Yes
Forced                      : No

[Image: 47789501182_e79662dbe9_b.jpg]

[Image: 47052040494_41405d1937_b.jpg]

[Image: tdown.png]

For Only Vip Members

eXistenZ (1999) Bluray Remux 1080p TR-EN AVC DTS-HD MA 5.1 VIP
Reply


Possibly Related Threads…
Thread Author Replies Views Last Post
  Ravenous (1999) Bluray REMUX 1080p EN-TR AVC DTS-HD MA 5.1-RDP AbrA 0 60 11-28-2020, 08:37 PM
Last Post: AbrA
  The Bone Collector (1999) Bluray REMUX 1080p AVC TrueHD 5.1-HUSe AbrA 0 130 10-14-2020, 12:24 PM
Last Post: AbrA
  The Green Mile (1999) Bluray REMUX 1080p VC-1 TrueHD 5.1-HUSe AbrA 0 192 09-14-2020, 08:44 PM
Last Post: AbrA
  Stir Of Echoes (1999) Bluray REMUX 1080p AVC DTS-HD MA 6.1 AbrA 0 419 07-07-2020, 07:55 AM
Last Post: AbrA
  The Thirteenth Floor (1999) Bluray Remux 1080p AVC TrueHD 5.1 admin 0 857 09-02-2019, 03:01 PM
Last Post: admin

Forum Jump:


Users browsing this thread: 1 Guest(s)

Powered By MyBB
Theme By Audentio Design
Updated By iAndrew | 2018