Thread Rating:
  • 0 Vote(s) - 0 Average
  • 1
  • 2
  • 3
  • 4
  • 5

[-]
Tags
bluray 1996 1080p eraser 1 vc remux 5 truehd

  Eraser (1996) Bluray Remux 1080p VC-1 TrueHD 5.1
#1
Eraser (1996) Bluray Remux 1080p VC-1 TrueHD 5.1

[Image: tt0116213.jpg]

[Image: imdb.png]
https://www.imdb.com/title/tt0116213/

[Image: info.png]
Eraser 1996 EN.mkv
Format                      : Matroska
Format version              : Version 4 / Version 2
File size                   : 13.4 GiB
Duration                    : 1 h 54 min
Overall bit rate mode       : Variable
Overall bit rate            : 16.8 Mb/s
Movie name                  : Eraser
Encoded date                : UTC 2014-12-25 21:29:17
Writing application         : mkvmerge v7.4.0 ('Circles') 64bit built on Dec 12 2014 12:19:56
Writing library             : libebml v1.3.0 + libmatroska v1.4.1

Video
ID                          : 1
Format                      : VC-1
Format profile              : [email protected]
Codec ID                    : V_MS/VFW/FOURCC / WVC1
Codec ID/Hint               : Microsoft
Duration                    : 1 h 54 min
Bit rate                    : 14.9 Mb/s
Width                       : 1 920 pixels
Height                      : 1 080 pixels
Display aspect ratio        : 16:9
Frame rate mode             : Constant
Frame rate                  : 23.976 (24000/1001) FPS
Color space                 : YUV
Chroma subsampling          : 4:2:0
Bit depth                   : 8 bits
Scan type                   : Progressive
Compression mode            : Lossy
Bits/(Pixel*Frame)          : 0.300
Stream size                 : 11.9 GiB (89%)
Title                       : Eraser
Language                    : English
Default                     : Yes
Forced                      : No

Audio
ID                          : 2
Format                      : TrueHD
Codec ID                    : A_TRUEHD
Duration                    : 1 h 54 min
Bit rate mode               : Variable
Bit rate                    : 1 773 kb/s
Maximum bit rate            : 3 465 kb/s
Channel(s)                  : 6 channels
Channel positions           : Front: L C R, Side: L R, LFE
Sampling rate               : 48.0 kHz
Frame rate                  : 1 200.000 FPS (40 spf)
Compression mode            : Lossless
Stream size                 : 1.42 GiB (11%)
Title                       : English
Language                    : English
Default                     : Yes
Forced                      : No

Text #1
ID                          : 3
Format                      : PGS
Muxing mode                 : zlib
Codec ID                    : S_HDMV/PGS
Codec ID/Info               : Picture based subtitle format used on BDs/HD-DVDs
Duration                    : 1 h 51 min
Bit rate                    : 11.5 kb/s
Count of elements           : 2254
Stream size                 : 9.20 MiB (0%)
Title                       : English
Language                    : English
Default                     : No
Forced                      : No

Text #2
ID                          : 4
Format                      : PGS
Muxing mode                 : zlib
Codec ID                    : S_HDMV/PGS
Codec ID/Info               : Picture based subtitle format used on BDs/HD-DVDs
Duration                    : 1 h 48 min
Bit rate                    : 10.9 kb/s
Count of elements           : 2406
Stream size                 : 8.42 MiB (0%)
Title                       : Turkish
Language                    : Turkish
Default                     : Yes
Forced                      : No

[Image: vlcsnap-error416-jpg-36cb682d46d9e5e86f4...78543c.jpg]

[Image: vlcsnap-error892-jpg-b65a35fdd593a9c4cfd...afaced.jpg]

[Image: tdown.png]

For Only Vip Members

Eraser (1996) Bluray Remux 1080p VC-1 TrueHD 5.1 VIP
Reply


Possibly Related Threads…
Thread Author Replies Views Last Post
  The Frighteners 15th Anniversary Edition (1996) Bluray REMUX 1080p AVC DTS-HD MA 5.1- AbrA 0 220 08-31-2020, 08:47 PM
Last Post: AbrA
  The Chamber (1996) Bluray Remux 1080p AVC DTS-HD MA 5.1 admin 1 898 10-24-2019, 12:35 PM
Last Post: Nozirlx
  Mary Reilly (1996) Bluray Remux 1080p AVC DD 2.0 admin 0 771 08-31-2019, 11:24 AM
Last Post: admin
  The Fan (1996) Bluray Remux 1080p AVC DTS-HD MA 5.1 admin 0 816 08-24-2019, 12:28 PM
Last Post: admin
  Jingle All the Way (1996) Bluray Remux 1080p AVC DTS 5.1 admin 0 752 08-24-2019, 11:46 AM
Last Post: admin

Forum Jump:


Users browsing this thread: 1 Guest(s)

Powered By MyBB
Theme By Audentio Design
Updated By iAndrew | 2018