Thread Rating:
  • 0 Vote(s) - 0 Average
  • 1
  • 2
  • 3
  • 4
  • 5

[-]
Tags
bluray 1999 avc 1080p hd ma entrapment 1 remux dts 5

 
  Entrapment (1999) Bluray Remux 1080p AVC DTS-HD MA 5.1
#1
Entrapment (1999) Bluray Remux 1080p AVC DTS-HD MA 5.1

[Image: tt0137494.jpg]

[Image: imdb.png]
https://www.imdb.com/title/tt0137494/

[Image: info.png]
Entrapment 1999 EN.mkv
Format                      : Matroska
Format version              : Version 4 / Version 2
File size                   : 18.0 GiB
Duration                    : 1 h 52 min
Overall bit rate mode       : Variable
Overall bit rate            : 22.8 Mb/s
Movie name                  : Entrapment
Encoded date                : UTC 2015-01-12 21:23:57
Writing application         : mkvmerge v7.5.0 ('Glass Culture') 64bit built on Jan  4 2015 16:48:44
Writing library             : libebml v1.3.1 + libmatroska v1.4.2

Video
ID                          : 1
Format                      : MPEG Video
Format version              : Version 2
Format profile              : [email protected]
Format settings, BVOP       : Yes
Format settings, Matrix     : Custom
Format settings, GOP        : Variable
Codec ID                    : V_MPEG2
Codec ID/Info               : MPEG 1 or 2 Video
Duration                    : 1 h 52 min
Bit rate mode               : Variable
Bit rate                    : 18.6 Mb/s
Maximum bit rate            : 40.0 Mb/s
Width                       : 1 920 pixels
Height                      : 1 080 pixels
Display aspect ratio        : 16:9
Frame rate mode             : Constant
Frame rate                  : 23.976 (24000/1001) FPS
Color space                 : YUV
Chroma subsampling          : 4:2:0
Bit depth                   : 8 bits
Scan type                   : Progressive
Compression mode            : Lossy
Bits/(Pixel*Frame)          : 0.374
Time code of first frame    : 00:00:00:00
Time code source            : Group of pictures header
GOP, Open/Closed            : Open
GOP, Open/Closed of first f : Closed
Stream size                 : 14.7 GiB (82%)
Title                       : Entrapment
Language                    : English
Default                     : Yes
Forced                      : No

Audio
ID                          : 2
Format                      : DTS
Format/Info                 : Digital Theater Systems
Format profile              : MA / Core
Mode                        : 16
Format settings, Endianness : Big
Codec ID                    : A_DTS
Duration                    : 1 h 52 min
Bit rate mode               : Variable / Constant
Bit rate                    : 4 165 kb/s / 1 509 kb/s
Channel(s)                  : 6 channels
Channel positions           : Front: L C R, Side: L R, LFE
Sampling rate               : 48.0 kHz
Frame rate                  : 93.750 FPS (512 spf)
Bit depth                   : 24 bits
Compression mode            : Lossless / Lossy
Stream size                 : 3.29 GiB (18%)
Title                       : English
Language                    : English
Default                     : Yes
Forced                      : No

Text #1
ID                          : 3
Format                      : PGS
Muxing mode                 : zlib
Codec ID                    : S_HDMV/PGS
Codec ID/Info               : Picture based subtitle format used on BDs/HD-DVDs
Duration                    : 1 h 45 min
Bit rate                    : 6 635 b/s
Count of elements           : 2016
Stream size                 : 5.03 MiB (0%)
Title                       : English
Language                    : English
Default                     : No
Forced                      : No

Text #2
ID                          : 4
Format                      : PGS
Muxing mode                 : zlib
Codec ID                    : S_HDMV/PGS
Codec ID/Info               : Picture based subtitle format used on BDs/HD-DVDs
Duration                    : 1 h 52 min
Bit rate                    : 9 321 b/s
Count of elements           : 1770
Stream size                 : 7.47 MiB (0%)
Title                       : Turkish
Language                    : Turkish
Default                     : Yes
Forced                      : No

[Image: vlcsnap-error589-jpg-2c84d2e34d6f7b31ba8...70159a.jpg]

[Image: vlcsnap-error813-jpg-1adcf9ca67d449b5287...efec11.jpg]

[Image: tdown.png]

For Only Vip Members

Entrapment (1999) Bluray Remux 1080p AVC DTS-HD MA 5.1 VIP
Reply


Possibly Related Threads…
Thread Author Replies Views Last Post
  Titus 1999 1080p Blu-ray Remux AVC DTS-HD MA 5.1 - KRaLiMaRKo KAiJu 0 15 11-24-2021, 02:07 PM
Last Post: KAiJu
  Double Jeopardy 1999 1080p Blu-ray Remux AVC DTS-HD MA 5.1-HDT KAiJu 0 49 10-08-2021, 07:19 AM
Last Post: KAiJu
  Joan of Arc (1999) Bluray REMUX 1080p AVC TrueHD 5.1-HUS AbrA 0 56 09-07-2021, 09:20 AM
Last Post: AbrA
  Go (1999) Bluray REMUX 1080p AVC TrueHD 5.1-HUS AbrA 0 44 08-20-2021, 11:10 AM
Last Post: AbrA
  The Straight Story 1999 1080p Remux AVC DTS-HD MA 5.1-playBD KAiJu 0 56 08-02-2021, 06:48 AM
Last Post: KAiJu

Forum Jump:


Users browsing this thread: 1 Guest(s)

Powered By MyBB
RSS RSS Syndication
Updated By iAndrew | 2021