Thread Rating:
  • 0 Vote(s) - 0 Average
  • 1
  • 2
  • 3
  • 4
  • 5

[-]
Tags
bluray 1080p elvis hd ma 1 1972 vc remux dts 5 on tour

 
  Elvis on Tour (1972) Bluray Remux 1080p VC-1 DTS-HD MA 5.1
#1
Elvis on Tour (1972) Bluray Remux 1080p VC-1 DTS-HD MA 5.1

[Image: tt0068537.jpg]

[Image: imdb.png]
https://www.imdb.com/title/tt0068537/

[Image: info.png]
Elvis on Tour 1972 EN.mkv
Format                      : Matroska
Format version              : Version 4 / Version 2
File size                   : 16.7 GiB
Duration                    : 1 h 33 min
Overall bit rate            : 25.7 Mb/s
Movie name                  : Elvis on Tour
Encoded date                : UTC 2016-06-18 20:48:13
Writing application         : mkvmerge v8.3.0 ('Over the Horizon') 64bit
Writing library             : libebml v1.3.1 + libmatroska v1.4.2

Video
ID                          : 1
Format                      : VC-1
Format profile              : [email protected]
Codec ID                    : V_MS/VFW/FOURCC / WVC1
Codec ID/Hint               : Microsoft
Duration                    : 1 h 33 min
Bit rate                    : 22.1 Mb/s
Width                       : 1 920 pixels
Height                      : 1 080 pixels
Display aspect ratio        : 16:9
Frame rate mode             : Constant
Frame rate                  : 23.976 (24000/1001) FPS
Color space                 : YUV
Chroma subsampling          : 4:2:0
Bit depth                   : 8 bits
Scan type                   : Progressive
Compression mode            : Lossy
Bits/(Pixel*Frame)          : 0.445
Stream size                 : 14.4 GiB (86%)
Title                       : Elvis on Tour
Language                    : English
Default                     : Yes
Forced                      : No

Audio
ID                          : 2
Format                      : DTS
Format/Info                 : Digital Theater Systems
Format profile              : MA / Core
Mode                        : 16
Format settings, Endianness : Big
Codec ID                    : A_DTS
Duration                    : 1 h 33 min
Bit rate mode               : Variable / Constant
Bit rate                    : 3 574 kb/s / 1 509 kb/s
Channel(s)                  : 6 channels
Channel positions           : Front: L C R, Side: L R, LFE
Sampling rate               : 48.0 kHz
Frame rate                  : 93.750 FPS (512 spf)
Bit depth                   : 24 bits
Compression mode            : Lossless / Lossy
Stream size                 : 2.33 GiB (14%)
Title                       : English
Language                    : English
Default                     : Yes
Forced                      : No

Text #1
ID                          : 3
Format                      : PGS
Muxing mode                 : zlib
Codec ID                    : S_HDMV/PGS
Codec ID/Info               : Picture based subtitle format used on BDs/HD-DVDs
Duration                    : 1 h 30 min
Bit rate                    : 8 259 b/s
Count of elements           : 1276
Stream size                 : 5.34 MiB (0%)
Title                       : English
Language                    : English
Default                     : No
Forced                      : No

Text #2
ID                          : 4
Format                      : PGS
Muxing mode                 : zlib
Codec ID                    : S_HDMV/PGS
Codec ID/Info               : Picture based subtitle format used on BDs/HD-DVDs
Duration                    : 1 h 29 min
Bit rate                    : 5 542 b/s
Count of elements           : 952
Stream size                 : 3.57 MiB (0%)
Title                       : Turkish
Language                    : Turkish
Default                     : Yes
Forced                      : No

[Image: vlcsnap-error572-jpg-8ac9527856ec7ef2097...5b2c0e.jpg]

[Image: vlcsnap-error867-jpg-b7aab190daad07fa772...d35065.jpg]

[Image: tdown.png]

For Only Vip Members

Elvis on Tour (1972) Bluray Remux 1080p VC-1 DTS-HD MA 5.1 VIP
Reply


Possibly Related Threads…
Thread Author Replies Views Last Post
  Elvis Presley The Searcher (2018) NF WEBDL 1080p DDP 5.1 x264-HUS AbrA 0 33 04-14-2022, 11:42 PM
Last Post: AbrA
  Reminiscences of a Journey to Lithuania (1972) MUBI WEBDL 1080p AAC 2.0 H264-TURG AbrA 0 110 10-13-2021, 02:54 PM
Last Post: AbrA
  Madonna The MDNA Tour (2012) Bluray Disc 1080p AVC DTS-HD MA 5.1 AbrA 0 148 09-27-2021, 01:04 PM
Last Post: AbrA
  Elvis Presley Thats the Way it is (1970) DVD5 AbrA 0 279 03-12-2021, 03:37 PM
Last Post: AbrA

Forum Jump:


Users browsing this thread: 1 Guest(s)

Powered By MyBB
RSS RSS Syndication
Updated By iAndrew | 2022