Thread Rating:
  • 0 Vote(s) - 0 Average
  • 1
  • 2
  • 3
  • 4
  • 5

[-]
Tags
bluray scissorhands avc 1080p edward hd ma 2 remux dts 1990

 
  Edward Scissorhands (1990) Bluray Remux 1080p AVC DTS-HD MA 2.0
#1
Edward Scissorhands (1990) Bluray Remux 1080p AVC DTS-HD MA 2.0

[Image: tt0099487.jpg]

[Image: imdb.png]
https://www.imdb.com/title/tt0099487/

[Image: info.png]
Edward Scissorhands 1990 EN.mkv
Format                      : Matroska
Format version              : Version 4 / Version 2
File size                   : 24.1 GiB
Duration                    : 1 h 45 min
Overall bit rate mode       : Variable
Overall bit rate            : 32.9 Mb/s
Movie name                  : Edward Scissorhands
Encoded date                : UTC 2015-10-14 21:40:26
Writing application         : mkvmerge v8.3.0 ('Over the Horizon') 64bit
Writing library             : libebml v1.3.1 + libmatroska v1.4.2

Video
ID                          : 1
Format                      : AVC
Format/Info                 : Advanced Video Codec
Format profile              : [email protected]
Format settings, CABAC      : Yes
Format settings, ReFrames   : 4 frames
Format settings, GOP        : M=3, N=12
Codec ID                    : V_MPEG4/ISO/AVC
Duration                    : 1 h 45 min
Bit rate mode               : Variable
Bit rate                    : 29.9 Mb/s
Maximum bit rate            : 31.0 Mb/s
Width                       : 1 920 pixels
Height                      : 1 080 pixels
Display aspect ratio        : 16:9
Frame rate mode             : Constant
Frame rate                  : 23.976 (24000/1001) FPS
Color space                 : YUV
Chroma subsampling          : 4:2:0
Bit depth                   : 8 bits
Scan type                   : Progressive
Bits/(Pixel*Frame)          : 0.601
Stream size                 : 21.9 GiB (91%)
Title                       : Edward Scissorhands
Language                    : English
Default                     : Yes
Forced                      : No

Audio
ID                          : 2
Format                      : DTS
Format/Info                 : Digital Theater Systems
Format profile              : MA / Core
Mode                        : 16
Format settings, Endianness : Big
Codec ID                    : A_DTS
Duration                    : 1 h 45 min
Bit rate mode               : Variable / Constant
Bit rate                    : 3 072 kb/s / 1 509 kb/s
Channel(s)                  : 4 channels
Channel positions           : Front: L C R, Back: C
Sampling rate               : 48.0 kHz
Frame rate                  : 93.750 FPS (512 spf)
Bit depth                   : 24 bits
Compression mode            : Lossless / Lossy
Stream size                 : 2.21 GiB (9%)
Title                       : English
Language                    : English
Default                     : Yes
Forced                      : No

Text #1
ID                          : 3
Format                      : PGS
Muxing mode                 : zlib
Codec ID                    : S_HDMV/PGS
Codec ID/Info               : Picture based subtitle format used on BDs/HD-DVDs
Duration                    : 1 h 36 min
Bit rate                    : 21.6 kb/s
Count of elements           : 2068
Stream size                 : 14.8 MiB (0%)
Title                       : English
Language                    : English
Default                     : No
Forced                      : No

Text #2
ID                          : 4
Format                      : PGS
Muxing mode                 : zlib
Codec ID                    : S_HDMV/PGS
Codec ID/Info               : Picture based subtitle format used on BDs/HD-DVDs
Duration                    : 1 h 36 min
Bit rate                    : 9 208 b/s
Count of elements           : 1800
Stream size                 : 6.32 MiB (0%)
Title                       : Turkish
Language                    : Turkish
Default                     : Yes
Forced                      : No

[Image: vlcsnap-error028-jpg-72ba8982f89c5515872...4462cd.jpg]

[Image: vlcsnap-error806-jpg-bbc830d9cd8a6605011...4af00b.jpg]

[Image: tdown.png]

For Only Vip Members

Edward Scissorhands (1990) Bluray Remux 1080p AVC DTS-HD MA 2.0 VIP
Reply


Possibly Related Threads…
Thread Author Replies Views Last Post
  The Rift 1990 1080p Blu-ray Remux AVC FLAC 2.0 - KRaLiMaRKo KAiJu 0 2 Yesterday, 07:26 AM
Last Post: KAiJu
  Hardware 1990 1080p BluRay REMUX AVC DTS-HD MA 5.1-TRiToN KAiJu 0 48 09-17-2021, 06:13 AM
Last Post: KAiJu
  Mountains of the Moon 1990 1080p Remux AVC DTS-HD MA 2 0-playBD KAiJu 0 45 09-12-2021, 12:51 PM
Last Post: KAiJu
  Quick Change 1990 1080p Blu-ray Remux AVC DTS-HD MA 2 0-HDT KAiJu 0 57 07-30-2021, 10:23 AM
Last Post: KAiJu
  Another 48 Hrs 1990 1080p Blu-ray Remux AVC TrueHD 5.1 - KRaLiMaRKo KAiJu 0 81 07-11-2021, 06:16 PM
Last Post: KAiJu

Forum Jump:


Users browsing this thread: 1 Guest(s)

Powered By MyBB
RSS RSS Syndication
Updated By iAndrew | 2021