Thread Rating:
  • 0 Vote(s) - 0 Average
  • 1
  • 2
  • 3
  • 4
  • 5

[-]
Tags
1997 dd bluray donnie avc 1080p brasco 1 remux 5

  Donnie Brasco (1997) Bluray Remux 1080p AVC DD 5.1
#1
Donnie Brasco (1997) Bluray Remux 1080p AVC DD 5.1

[Image: tt0119008.jpg]

[Image: imdb.png]
https://www.imdb.com/title/tt0119008/

[Image: info.png]
Donnie Brasco 1997 EN.mkv
Format                      : Matroska
Format version              : Version 4 / Version 2
File size                   : 30.5 GiB
Duration                    : 2 h 27 min
Overall bit rate mode       : Variable
Overall bit rate            : 29.7 Mb/s
Movie name                  : Donnie Brasco
Encoded date                : UTC 2017-12-12 18:46:22
Writing application         : mkvmerge v18.0.0 ('Apricity') 64-bit
Writing library             : libebml v1.3.5 + libmatroska v1.4.8

Video
ID                          : 1
Format                      : AVC
Format/Info                 : Advanced Video Codec
Format profile              : [email protected]
Format settings, CABAC      : Yes
Format settings, ReFrames   : 2 frames
Format settings, GOP        : M=1, N=10
Codec ID                    : V_MPEG4/ISO/AVC
Duration                    : 2 h 27 min
Bit rate mode               : Variable
Bit rate                    : 29.0 Mb/s
Width                       : 1 920 pixels
Height                      : 1 080 pixels
Display aspect ratio        : 16:9
Frame rate mode             : Constant
Frame rate                  : 23.976 (24000/1001) FPS
Color space                 : YUV
Chroma subsampling          : 4:2:0
Bit depth                   : 8 bits
Scan type                   : Progressive
Bits/(Pixel*Frame)          : 0.583
Stream size                 : 29.8 GiB (98%)
Title                       : Donnie Brasco
Language                    : English
Default                     : Yes
Forced                      : No

Audio
ID                          : 2
Format                      : AC-3
Format/Info                 : Audio Coding 3
Format settings, Endianness : Big
Codec ID                    : A_AC3
Duration                    : 2 h 27 min
Bit rate mode               : Constant
Bit rate                    : 640 kb/s
Channel(s)                  : 6 channels
Channel positions           : Front: L C R, Side: L R, LFE
Sampling rate               : 48.0 kHz
Frame rate                  : 31.250 FPS (1536 spf)
Bit depth                   : 16 bits
Compression mode            : Lossy
Stream size                 : 674 MiB (2%)
Title                       : English
Language                    : English
Service kind                : Complete Main
Default                     : Yes
Forced                      : No

Text #1
ID                          : 3
Format                      : PGS
Muxing mode                 : zlib
Codec ID                    : S_HDMV/PGS
Codec ID/Info               : Picture based subtitle format used on BDs/HD-DVDs
Duration                    : 2 h 20 min
Bit rate                    : 43.1 kb/s
Count of elements           : 3468
Stream size                 : 43.2 MiB (0%)
Title                       : English
Language                    : English
Default                     : No
Forced                      : No

Text #2
ID                          : 4
Format                      : PGS
Muxing mode                 : zlib
Codec ID                    : S_HDMV/PGS
Codec ID/Info               : Picture based subtitle format used on BDs/HD-DVDs
Duration                    : 2 h 20 min
Bit rate                    : 31.0 kb/s
Count of elements           : 3448
Stream size                 : 31.0 MiB (0%)
Title                       : Turkish
Language                    : Turkish
Default                     : Yes
Forced                      : No

[Image: 40874820433_42f00e4768_b.jpg]

[Image: 47841600361_530b57a8f7_b.jpg]

[Image: tdown.png]

For Only Vip Members

Donnie Brasco (1997) Bluray Remux 1080p AVC DD 5.1 VIP
Reply


Possibly Related Threads…
Thread Author Replies Views Last Post
  Contact (1997) Bluray REMUX 1080p EN-TR VC-1 TrueHD 5.1[ AbrA 0 107 11-11-2020, 11:51 AM
Last Post: AbrA
  Speed 2 Cruise Control (1997) Bluray REMUX 1080p AVC DTS-HD MA 5.1-HUSe AbrA 0 511 06-23-2020, 01:51 PM
Last Post: AbrA
  The Postman (1997) Bluray Remux 1080p VC-1 5.1 admin 0 733 08-31-2019, 06:59 AM
Last Post: admin
  Lost Highway (1997) Bluray Remux 1080p AVC DTS-HD MA 5.1 admin 0 745 08-23-2019, 01:46 PM
Last Post: admin
  Red Corner (1997) Bluray Remux 1080p DD 5.1 admin 0 636 08-10-2019, 07:10 AM
Last Post: admin

Forum Jump:


Users browsing this thread: 1 Guest(s)

Powered By MyBB
Theme By Audentio Design
Updated By iAndrew | 2018