Thread Rating:
  • 0 Vote(s) - 0 Average
  • 1
  • 2
  • 3
  • 4
  • 5

[-]
Tags
bluray dirty harry 810p x264 prodji 1988 dts collection 1971

  Dirty Harry Collection (1971-1988) BluRay 810p DTS x264-PRoDJi
#1
Dirty Harry Collection (1971-1988) BluRay 810p DTS x264-PRoDJi

[Image: dirty.harry.jpg]

[Image: imdb.png]
https://www.imdb.com/title/tt0066999/
https://www.imdb.com/title/tt0070355/
https://www.imdb.com/title/tt0074483/
https://www.imdb.com/title/tt0086383/
https://www.imdb.com/title/tt0066999/

[Image: info.png]
Format : Matroska
Format version : Version 4
File size : 4.37 GiB
Duration : 1 h 42 min
Overall bit rate : 6 108 kb/s
Encoded date : UTC 2015-08-29 08:26:05
Writing application : mkvmerge v7.8.0 ('River Man') 32bit built on Mar 27 2015 16:18:02
Writing library : libebml v1.3.1 + libmatroska v1.4.2

Video
ID : 1
Format : AVC
Format/Info : Advanced Video Codec
Format profile : [email protected]
Format settings : CABAC / 8 Ref Frames
Format settings, CABAC : Yes
Format settings, RefFrames : 8 frames
Codec ID : V_MPEG4/ISO/AVC
Duration : 1 h 42 min
Bit rate : 4 340 kb/s
Width : 1 440 pixels
Height : 600 pixels
Display aspect ratio : 2.40:1
Frame rate mode : Constant
Frame rate : 23.976 (24000/1001) FPS
Color space : YUV
Chroma subsampling : 4:2:0
Bit depth : 8 bits
Scan type : Progressive
Bits/(Pixel*Frame) : 0.210
Stream size : 3.02 GiB (69%)
Title : @4340Kbps High Profiles @L4.1
Writing library : x264 core 146 r2538 121396c
Encoding settings : cabac=1 / ref=9 / deblock=1:-1:-1 / analyse=0x3:0x113 / me=umh / subme=9 / psy=1 / psy_rd=1.00:0.00 / mixed_ref=1 / me_range=24 / chroma_me=1 / trellis=2 / 8x8dct=1 / cqm=2 / deadzone=21,11 / fast_pskip=1 / chroma_qp_offset=-5 / threads=6 / lookahead_threads=1 / sliced_threads=0 / nr=0 / decimate=0 / interlaced=0 / bluray_compat=0 / constrained_intra=0 / bframes=5 / b_pyramid=1 / b_adapt=2 / b_bias=2 / direct=3 / weightb=1 / open_gop=0 / weightp=2 / keyint=230 / keyint_min=22 / scenecut=40 / intra_refresh=0 / rc_lookahead=45 / rc=2pass / mbtree=1 / bitrate=4340 / ratetol=1.0 / qcomp=0.60 / qpmin=10 / qpmax=41 / qpstep=4 / cplxblur=20.0 / qblur=0.5 / ip_ratio=1.30 / aq=1:1.00
Language : English
Default : Yes
Forced : No

Audio #1
ID : 2
Format : DTS
Format/Info : Digital Theater Systems
Codec ID : A_DTS
Duration : 1 h 42 min
Bit rate mode : Constant
Bit rate : 1 509 kb/s
Channel(s) : 6 channels
Channel layout : C L R Ls Rs LFE
Sampling rate : 48.0 kHz
Frame rate : 93.750 FPS (512 SPF)
Bit depth : 24 bits
Compression mode : Lossy
Stream size : 1.08 GiB (25%)
Title : [email protected] 6 chnls
Language : English
Default : Yes
Forced : No

Audio #2
ID : 3
Format : AC-3
Format/Info : Audio Coding 3
Commercial name : Dolby Digital
Codec ID : A_AC3
Duration : 1 h 42 min
Bit rate mode : Constant
Bit rate : 256 kb/s
Channel(s) : 2 channels
Channel layout : L R
Sampling rate : 48.0 kHz
Frame rate : 31.250 FPS (1536 SPF)
Bit depth : 16 bits
Compression mode : Lossy
Stream size : 188 MiB (4%)
Title : [email protected] 2 chnls
Language : Turkish
Service kind : Complete Main
Default : No
Forced : No

Menu
00:00:00.000 : en:00:00:00.000
00:01:51.695 : en:00:01:51.695
00:05:43.510 : en:00:05:43.510
00:09:41.915 : en:00:09:41.915
00:14:49.305 : en:00:14:49.305
00:16:55.848 : en:00:16:55.848
00:19:57.029 : en:00:19:57.029
00:23:38.250 : en:00:23:38.250
00:28:37.883 : en:00:28:37.883
00:33:06.818 : en:00:33:06.818
00:36:41.032 : en:00:36:41.032
00:39:40.795 : en:00:39:40.795
00:42:21.372 : en:00:42:21.372
00:47:11.328 : en:00:47:11.328
00:52:52.002 : en:00:52:52.002
00:54:55.125 : en:00:54:55.125
00:56:40.230 : en:00:56:40.230
01:01:36.860 : en:01:01:36.860
01:04:47.717 : en:01:04:47.717
01:07:32.882 : en:01:07:32.882
01:10:26.055 : en:01:10:26.055
01:15:46.375 : en:01:15:46.375
01:17:38.487 : en:01:17:38.487
01:22:14.054 : en:01:22:14.054
01:24:45.914 : en:01:24:45.914
01:26:15.003 : en:01:26:15.003
01:32:07.355 : en:01:32:07.355
01:36:19.607 : en:01:36:19.607
01:39:23.791 : en:01:39:23.791
01:40:53.381 : en:01:40:53.381
01:41:40.928 : en:01:41:40.928

[Image: 1.jpg]

[Image: 2.jpg]

[Image: tdown.png]

For Only Vip Members
Reply


Possibly Related Threads...
Thread Author Replies Views Last Post
  Batman (1989) Bluray 1080p DUAL DD5.1 x264-fidelio admin 0 12 7 hours ago
Last Post: admin
  I Spit on Your Grave Deja Vu (2019) Bluray 1080p x264-EVO admin 0 46 04-24-2019, 02:11 PM
Last Post: admin
  How to Train Your Dragon The Hidden World (2019) Bluray 1080p DUAL DD5.1 x264-CHD admin 0 47 04-24-2019, 12:35 PM
Last Post: admin
  Holmes and Watson (2018) Bluray 1080p DUAL DD5.1 x264-BdC admin 0 49 04-24-2019, 10:24 AM
Last Post: admin
  The Mule (2018) Bluray 1080p DUAL AC3 x264-BdC admin 0 72 04-23-2019, 08:27 PM
Last Post: admin

Forum Jump:


Users browsing this thread: 1 Guest(s)

Powered By MyBB
Theme By Audentio Design
Updated By iAndrew | 2018