Thread Rating:
  • 0 Vote(s) - 0 Average
  • 1
  • 2
  • 3
  • 4
  • 5

[-]
Tags
a long diary wimpy bluray avc kid 1080p of 2017 the en hd ma 1 haul remux dts 5 tr

  Diary of a Wimpy Kid The Long Haul (2017) Bluray Remux 1080p TR-EN AVC DTS-HD MA 5.1
#1
Diary of a Wimpy Kid The Long Haul (2017) Bluray Remux 1080p TR-EN AVC DTS-HD MA 5.1

[Image: tt6003368.jpg]

[Image: imdb.png]
https://www.imdb.com/title/tt6003368/

[Image: info.png]
Diary of a Wimpy Kid The Long Haul 2017 TR EN.mkv
Format                      : Matroska
Format version              : Version 4 / Version 2
File size                   : 20.3 GiB
Duration                    : 1 h 31 min
Overall bit rate mode       : Variable
Overall bit rate            : 31.8 Mb/s
Movie name                  : Diary of a Wimpy Kid: The Long Haul
Encoded date                : UTC 2017-10-14 18:36:26
Writing application         : mkvmerge v17.0.0 ('Be Ur Friend') 64-bit
Writing library             : libebml v1.3.5 + libmatroska v1.4.8

Video
ID                          : 1
Format                      : AVC
Format/Info                 : Advanced Video Codec
Format profile              : [email protected]
Format settings, CABAC      : Yes
Format settings, ReFrames   : 4 frames
Codec ID                    : V_MPEG4/ISO/AVC
Duration                    : 1 h 31 min
Bit rate mode               : Variable
Bit rate                    : 26.8 Mb/s
Maximum bit rate            : 29.5 Mb/s
Width                       : 1 920 pixels
Height                      : 1 080 pixels
Display aspect ratio        : 16:9
Frame rate mode             : Constant
Frame rate                  : 23.976 (24000/1001) FPS
Color space                 : YUV
Chroma subsampling          : 4:2:0
Bit depth                   : 8 bits
Scan type                   : Progressive
Bits/(Pixel*Frame)          : 0.539
Stream size                 : 17.1 GiB (84%)
Title                       : Diary of a Wimpy Kid: The Long Haul
Language                    : English
Default                     : Yes
Forced                      : No

Audio #1
ID                          : 2
Format                      : DTS
Format/Info                 : Digital Theater Systems
Format profile              : MA / Core
Mode                        : 16
Format settings, Endianness : Big
Codec ID                    : A_DTS
Duration                    : 1 h 31 min
Bit rate mode               : Variable / Constant
Bit rate                    : 4 540 kb/s / 1 509 kb/s
Channel(s)                  : 8 channels / 6 channels
Channel positions           : Front: L C R, Side: L R, Back: L R, LFE / Front: L C R, Side: L R, LFE
Sampling rate               : 48.0 kHz
Frame rate                  : 93.750 FPS (512 spf)
Bit depth                   : 24 bits
Compression mode            : Lossless / Lossy
Stream size                 : 2.90 GiB (14%)
Title                       : English
Language                    : English
Default                     : Yes
Forced                      : No

Audio #2
ID                          : 3
Format                      : AC-3
Format/Info                 : Audio Coding 3
Format settings, Endianness : Big
Codec ID                    : A_AC3
Duration                    : 1 h 31 min
Bit rate mode               : Constant
Bit rate                    : 448 kb/s
Channel(s)                  : 6 channels
Channel positions           : Front: L C R, Side: L R, LFE
Sampling rate               : 48.0 kHz
Frame rate                  : 31.250 FPS (1536 spf)
Bit depth                   : 16 bits
Compression mode            : Lossy
Stream size                 : 293 MiB (1%)
Title                       : Turkish
Language                    : Turkish
Service kind                : Complete Main
Default                     : No
Forced                      : No

Text #1
ID                          : 4
Format                      : PGS
Muxing mode                 : zlib
Codec ID                    : S_HDMV/PGS
Codec ID/Info               : Picture based subtitle format used on BDs/HD-DVDs
Duration                    : 1 h 26 min
Bit rate                    : 47.7 kb/s
Count of elements           : 2901
Stream size                 : 29.5 MiB (0%)
Title                       : English
Language                    : English
Default                     : No
Forced                      : No

Text #2
ID                          : 5
Format                      : PGS
Muxing mode                 : zlib
Codec ID                    : S_HDMV/PGS
Codec ID/Info               : Picture based subtitle format used on BDs/HD-DVDs
Duration                    : 1 h 30 min
Bit rate                    : 34.8 kb/s
Count of elements           : 2000
Stream size                 : 22.6 MiB (0%)
Title                       : Turkish
Language                    : Turkish
Default                     : Yes
Forced                      : No

[Image: vlcsnap-error574-jpg-cecedfb6346c8c521d2...603d75.jpg]

[Image: vlcsnap-error996-jpg-92bc75ff5e7aaa97614...f8373f.jpg]

[Image: tdown.png]

For Only Vip Members

Diary of a Wimpy Kid The Long Haul (2017) Bluray Remux 1080p TR-EN AVC DTS-HD MA 5.1 VIP
Reply


Possibly Related Threads…
Thread Author Replies Views Last Post
  Long Days Journey Into Night (2018) Bluray Remux 1080p TR-EN AVC DTS-HD MA 5.1-BdC admin 0 963 12-21-2019, 07:23 PM
Last Post: admin
  The Diary of Anne Frank (1959) Bluray Remux 1080p AVC DTS-HD MA 5.1 admin 0 901 08-24-2019, 12:23 PM
Last Post: admin
  Long Shot (2019) Bluray Remux 1080p AVC TrueHD 7.1 admin 0 948 08-23-2019, 01:41 PM
Last Post: admin
  Diary of the Dead (2007) Bluray Remux 1080p VC-1 TrueHD 5.1 admin 0 895 05-28-2019, 08:41 PM
Last Post: admin
  Mandela Long Walk to Freedom (2013) Bluray Remux 1080p AVC DTS-HD MA 5.1 admin 0 1,168 05-18-2019, 08:40 PM
Last Post: admin

Forum Jump:


Users browsing this thread: 1 Guest(s)

Powered By MyBB
Theme By Audentio Design
Updated By iAndrew | 2018