Thread Rating:
  • 0 Vote(s) - 0 Average
  • 1
  • 2
  • 3
  • 4
  • 5

[-]
Tags
demolition bluray man avc 1080p hd ma 1 1993 remux dts 5

 
  Demolition Man (1993) Bluray Remux 1080p AVC DTS-HD MA 5.1
#1
Demolition Man (1993) Bluray Remux 1080p AVC DTS-HD MA 5.1

[Image: tt0106697.jpg]

[Image: imdb.png]
https://www.imdb.com/title/tt0106697/

[Image: info.png]
Demolition Man 1993 EN.mkv
Format                      : Matroska
Format version              : Version 4 / Version 2
File size                   : 19.0 GiB
Duration                    : 1 h 55 min
Overall bit rate mode       : Variable
Overall bit rate            : 23.7 Mb/s
Movie name                  : Demolition Man
Encoded date                : UTC 2015-01-12 20:12:40
Writing application         : mkvmerge v7.5.0 ('Glass Culture') 64bit built on Jan  4 2015 16:48:44
Writing library             : libebml v1.3.1 + libmatroska v1.4.2

Video
ID                          : 1
Format                      : AVC
Format/Info                 : Advanced Video Codec
Format profile              : [email protected]
Format settings, CABAC      : Yes
Format settings, ReFrames   : 2 frames
Codec ID                    : V_MPEG4/ISO/AVC
Duration                    : 1 h 55 min
Bit rate mode               : Variable
Bit rate                    : 19.9 Mb/s
Width                       : 1 920 pixels
Height                      : 1 080 pixels
Display aspect ratio        : 16:9
Frame rate mode             : Constant
Frame rate                  : 23.976 (24000/1001) FPS
Color space                 : YUV
Chroma subsampling          : 4:2:0
Bit depth                   : 8 bits
Scan type                   : Progressive
Bits/(Pixel*Frame)          : 0.401
Stream size                 : 16.0 GiB (84%)
Title                       : Demolition Man
Language                    : English
Default                     : Yes
Forced                      : No

Audio
ID                          : 2
Format                      : DTS
Format/Info                 : Digital Theater Systems
Format profile              : MA / Core
Mode                        : 16
Format settings, Endianness : Big
Codec ID                    : A_DTS
Duration                    : 1 h 55 min
Bit rate mode               : Variable / Constant
Bit rate                    : 3 704 kb/s / 1 509 kb/s
Channel(s)                  : 6 channels
Channel positions           : Front: L C R, Side: L R, LFE
Sampling rate               : 48.0 kHz
Frame rate                  : 93.750 FPS (512 spf)
Bit depth                   : 24 bits
Compression mode            : Lossless / Lossy
Stream size                 : 2.98 GiB (16%)
Title                       : English
Language                    : English
Default                     : Yes
Forced                      : No

Text #1
ID                          : 3
Format                      : PGS
Muxing mode                 : zlib
Codec ID                    : S_HDMV/PGS
Codec ID/Info               : Picture based subtitle format used on BDs/HD-DVDs
Duration                    : 1 h 54 min
Bit rate                    : 17.1 kb/s
Count of elements           : 3128
Stream size                 : 14.0 MiB (0%)
Title                       : English
Language                    : English
Default                     : No
Forced                      : No

Text #2
ID                          : 4
Format                      : PGS
Muxing mode                 : zlib
Codec ID                    : S_HDMV/PGS
Codec ID/Info               : Picture based subtitle format used on BDs/HD-DVDs
Duration                    : 1 h 49 min
Bit rate                    : 15.0 kb/s
Count of elements           : 2930
Stream size                 : 11.8 MiB (0%)
Title                       : Turkish
Language                    : Turkish
Default                     : Yes
Forced                      : No

[Image: vlcsnap-error503-jpg-fc9e6d2172fcde85fb6...b5684c.jpg]

[Image: vlcsnap-error921-jpg-4cf0182aa525e6e4951...ed76bb.jpg]

[Image: tdown.png]

For Only Vip Members

Demolition Man (1993) Bluray Remux 1080p AVC DTS-HD MA 5.1 VIP
Reply


Possibly Related Threads…
Thread Author Replies Views Last Post
  Ticks 1993 1080p Blu-ray Remux AVC DTS-HD MA 2 0-HDT KAiJu 0 16 11-04-2021, 12:51 PM
Last Post: KAiJu
  The Scent of Green Papaya 1993 1080p Blu-ray Remux AVC LPCM 2 0-HDT KAiJu 0 48 10-18-2021, 10:09 AM
Last Post: KAiJu
  Dave 1993 1080p Blu-ray Remux AVC FLAC 2.0 - KRaLiMaRKo KAiJu 0 44 09-30-2021, 06:55 AM
Last Post: KAiJu
  The Crush 1993 1080p Blu-ray Remux AVC DTS-HD MA 5.1 - KRaLiMaRKo KAiJu 0 43 09-15-2021, 09:51 AM
Last Post: KAiJu
  Leprechaun Series (1993-2003) Bluray REMUX 1080p AVC DTS-HD MA 2.0 AbrA 0 54 09-14-2021, 09:47 PM
Last Post: AbrA

Forum Jump:


Users browsing this thread: 1 Guest(s)

Powered By MyBB
RSS RSS Syndication
Updated By iAndrew | 2021