Thread Rating:
  • 0 Vote(s) - 0 Average
  • 1
  • 2
  • 3
  • 4
  • 5

[-]
Tags
bluray man down avc 2013 1080p hd ma 1 remux dts 5 dead

 
  Dead Man Down (2013) Bluray Remux 1080p AVC DTS-HD MA 5.1
#1
Dead Man Down (2013) Bluray Remux 1080p AVC DTS-HD MA 5.1

[Image: tt2101341.jpg]

[Image: imdb.png]
https://www.imdb.com/title/tt2101341/

[Image: info.png]
Dead Man Down 2013 EN.mkv
Format                      : Matroska
Format version              : Version 4 / Version 2
File size                   : 23.4 GiB
Duration                    : 1 h 57 min
Overall bit rate mode       : Variable
Overall bit rate            : 28.4 Mb/s
Movie name                  : Dead Man Down
Encoded date                : UTC 2017-09-25 13:21:56
Writing application         : mkvmerge v15.0.0 ('Duel with the Devil') 64-bit
Writing library             : libebml v1.3.5 + libmatroska v1.4.5

Video
ID                          : 1
Format                      : AVC
Format/Info                 : Advanced Video Codec
Format profile              : [email protected]
Format settings, CABAC      : Yes
Format settings, ReFrames   : 2 frames
Codec ID                    : V_MPEG4/ISO/AVC
Duration                    : 1 h 57 min
Bit rate mode               : Variable
Bit rate                    : 24.9 Mb/s
Width                       : 1 920 pixels
Height                      : 1 080 pixels
Display aspect ratio        : 16:9
Frame rate mode             : Constant
Frame rate                  : 23.976 (24000/1001) FPS
Color space                 : YUV
Chroma subsampling          : 4:2:0
Bit depth                   : 8 bits
Scan type                   : Progressive
Bits/(Pixel*Frame)          : 0.501
Stream size                 : 20.5 GiB (88%)
Title                       : Dead Man Down
Language                    : English
Default                     : Yes
Forced                      : No

Audio
ID                          : 2
Format                      : DTS
Format/Info                 : Digital Theater Systems
Format profile              : MA / Core
Mode                        : 16
Format settings, Endianness : Big
Codec ID                    : A_DTS
Duration                    : 1 h 57 min
Bit rate mode               : Variable / Constant
Bit rate                    : 3 497 kb/s / 1 509 kb/s
Channel(s)                  : 6 channels
Channel positions           : Front: L C R, Side: L R, LFE
Sampling rate               : 48.0 kHz
Frame rate                  : 93.750 FPS (512 spf)
Bit depth                   : 24 bits
Compression mode            : Lossless / Lossy
Stream size                 : 2.88 GiB (12%)
Title                       : English
Language                    : English
Default                     : Yes
Forced                      : No

Text #1
ID                          : 3
Format                      : PGS
Muxing mode                 : zlib
Codec ID                    : S_HDMV/PGS
Codec ID/Info               : Picture based subtitle format used on BDs/HD-DVDs
Duration                    : 1 h 47 min
Bit rate                    : 25.2 kb/s
Count of elements           : 2042
Stream size                 : 19.4 MiB (0%)
Title                       : English
Language                    : English
Default                     : No
Forced                      : No

Text #2
ID                          : 4
Format                      : PGS
Muxing mode                 : zlib
Codec ID                    : S_HDMV/PGS
Codec ID/Info               : Picture based subtitle format used on BDs/HD-DVDs
Duration                    : 1 h 48 min
Bit rate                    : 19.3 kb/s
Count of elements           : 1928
Stream size                 : 15.0 MiB (0%)
Title                       : Turkish
Language                    : Turkish
Default                     : Yes
Forced                      : No

[Image: 33963708348_14ee380ba9_b.jpg]

[Image: 40874328843_7b9ecb3566_b.jpg]

[Image: tdown.png]

For Only Vip Members

Dead Man Down (2013) Bluray Remux 1080p AVC DTS-HD MA 5.1 VIP
Reply


Possibly Related Threads…
Thread Author Replies Views Last Post
  Evil Dead 2013 1080p Blu-ray Remux AVC DTS-HD MA 5.1 - KRaLiMaRKo KAiJu 0 37 04-20-2022, 09:10 AM
Last Post: KAiJu
  Dracula Dead And Loving It 1995 1080p Blu-ray Remux AVC DTS-HD MA 2 0-HDT KAiJu 0 70 03-24-2022, 07:54 AM
Last Post: KAiJu
  More dead than alive 1969 1080p Blu-ray Remux AVC DD 2 0-HDT KAiJu 0 75 03-01-2022, 06:36 AM
Last Post: KAiJu
  Gods Not Dead We The People 2021 1080p Blu-ray Remux AVC DTS-HD MA 5.1-HDT KAiJu 0 56 02-28-2022, 02:57 PM
Last Post: KAiJu
  Children Shouldnt Play with Dead Things 1972 1080p BluRay REMUX VC-1 DTS-HD MA 2 0-EP KAiJu 0 59 02-23-2022, 06:39 AM
Last Post: KAiJu

Forum Jump:


Users browsing this thread: 1 Guest(s)

Powered By MyBB
RSS RSS Syndication
Updated By iAndrew | 2022