Thread Rating:
  • 0 Vote(s) - 0 Average
  • 1
  • 2
  • 3
  • 4
  • 5

[-]
Tags
bluray 1996 darkman avc 1080p 1 2 remux dts 1990 3

  Darkman 1-2-3 (1990-1996) Bluray Remux 1080p AVC DTS 2.0
#1
Darkman (1990) Bluray Remux 1080p AVC DTS 2.0

[Image: tt0099365.jpg]

[Image: imdb.png]
https://www.imdb.com/title/tt0099365/
https://www.imdb.com/title/tt0109552/
https://www.imdb.com/title/tt0116033/

[Image: info.png]
Darkman 1990 EN.mkv
Format                      : Matroska
Format version              : Version 4 / Version 2
File size                   : 15.7 GiB
Duration                    : 1 h 35 min
Overall bit rate mode       : Variable
Overall bit rate            : 23.6 Mb/s
Movie name                  : Darkman
Encoded date                : UTC 2018-01-22 17:44:01
Writing application         : mkvmerge v20.0.0 ('I Am The Sun') 64-bit
Writing library             : libebml v1.3.5 + libmatroska v1.4.8

Video
ID                          : 1
Format                      : AVC
Format/Info                 : Advanced Video Codec
Format profile              : [email protected]
Format settings             : CABAC / 3 Ref Frames
Format settings, CABAC      : Yes
Format settings, ReFrames   : 3 frames
Codec ID                    : V_MPEG4/ISO/AVC
Duration                    : 1 h 35 min
Bit rate mode               : Variable
Bit rate                    : 22.0 Mb/s
Maximum bit rate            : 30.0 Mb/s
Width                       : 1 920 pixels
Height                      : 1 080 pixels
Display aspect ratio        : 16:9
Frame rate mode             : Constant
Frame rate                  : 23.976 (24000/1001) FPS
Standard                    : NTSC
Color space                 : YUV
Chroma subsampling          : 4:2:0
Bit depth                   : 8 bits
Scan type                   : Progressive
Bits/(Pixel*Frame)          : 0.442
Stream size                 : 14.6 GiB (93%)
Title                       : Darkman
Language                    : English
Default                     : Yes
Forced                      : No
Color range                 : Limited
Color primaries             : BT.709
Transfer characteristics    : BT.709
Matrix coefficients         : BT.709

Audio
ID                          : 2
Format                      : DTS
Format/Info                 : Digital Theater Systems
Format profile              : MA / Core
Codec ID                    : A_DTS
Duration                    : 1 h 35 min
Bit rate mode               : Variable / Constant
Bit rate                    : 1 630 kb/s / 1 509 kb/s
Channel(s)                  : 2 channels
Channel positions           : Front: L R
Sampling rate               : 48.0 kHz
Frame rate                  : 93.750 FPS (512 SPF)
Bit depth                   : 24 bits
Compression mode            : Lossless / Lossy
Stream size                 : 1.08 GiB (7%)
Title                       : English
Language                    : English
Default                     : Yes
Forced                      : No

Text
ID                          : 3
Format                      : PGS
Muxing mode                 : zlib
Codec ID                    : S_HDMV/PGS
Codec ID/Info               : Picture based subtitle format used on BDs/HD-DVDs
Duration                    : 1 h 28 min
Bit rate                    : 20.9 kb/s
Count of elements           : 1832
Stream size                 : 13.3 MiB (0%)
Title                       : Turkish
Language                    : Turkish
Default                     : Yes
Forced                      : No

[Image: 46938927865_74df1cf223_b.jpg]

[Image: 47855205941_fc1600364c_b.jpg]

[Image: tdown.png]

For Only Vip Members

Darkman 1-2-3 (1990-1996) Bluray Remux 1080p AVC DTS 2.0 VIP
Reply


Possibly Related Threads…
Thread Author Replies Views Last Post
  Trust 1990 1080p Blu-ray Remux AVC FLAC 1.0 - KRaLiMaRKo KAiJu 0 75 10-27-2020, 03:18 PM
Last Post: KAiJu
  The Hunt for Red October (1990) Bluray REMUX 1080p AVC TrueHD 5.1-HUSe AbrA 0 125 10-05-2020, 01:58 PM
Last Post: AbrA
  The Frighteners 15th Anniversary Edition (1996) Bluray REMUX 1080p AVC DTS-HD MA 5.1- AbrA 0 235 08-31-2020, 08:47 PM
Last Post: AbrA
  Night of the Living Dead (1990) Bluray Remux 1080p AVC DTS-HD MA 5.1 admin 1 1,181 03-27-2020, 10:43 AM
Last Post: prodigalson1
  Home Alone 1-2 (1990-1992) Bluray Remux 1080p AVC DD 5.1-MiXeD admin 0 793 12-28-2019, 06:40 PM
Last Post: admin

Forum Jump:


Users browsing this thread: 1 Guest(s)

Powered By MyBB
Theme By Audentio Design
Updated By iAndrew | 2018