Thread Rating:
  • 0 Vote(s) - 0 Average
  • 1
  • 2
  • 3
  • 4
  • 5

[-]
Tags
bluray avc 1080p dark hd ma 1 remux dts 1990 5 angel

  Dark Angel (1990) Bluray Remux 1080p AVC DTS-HD MA 5.1
#1
Dark Angel (1990) Bluray Remux 1080p AVC DTS-HD MA 5.1

[Image: tt0099817.jpg]

[Image: imdb.png]
https://www.imdb.com/title/tt0099817/

[Image: info.png]
Dark Angel 1990 EN.mkv
Format                      : Matroska
Format version              : Version 4 / Version 2
File size                   : 21.5 GiB
Duration                    : 1 h 31 min
Overall bit rate mode       : Variable
Overall bit rate            : 33.5 Mb/s
Movie name                  : Dark Angel
Encoded date                : UTC 2018-02-06 17:55:51
Writing application         : mkvmerge v20.0.0 ('I Am The Sun') 64-bit
Writing library             : libebml v1.3.5 + libmatroska v1.4.8

Video
ID                          : 1
Format                      : AVC
Format/Info                 : Advanced Video Codec
Format profile              : [email protected]
Format settings             : CABAC / 3 Ref Frames
Format settings, CABAC      : Yes
Format settings, ReFrames   : 3 frames
Format settings, GOP        : M=3, N=12
Codec ID                    : V_MPEG4/ISO/AVC
Duration                    : 1 h 31 min
Bit rate mode               : Variable
Bit rate                    : 30.0 Mb/s
Maximum bit rate            : 35.0 Mb/s
Width                       : 1 920 pixels
Height                      : 1 080 pixels
Display aspect ratio        : 16:9
Frame rate mode             : Constant
Frame rate                  : 23.976 (24000/1001) FPS
Standard                    : NTSC
Color space                 : YUV
Chroma subsampling          : 4:2:0
Bit depth                   : 8 bits
Scan type                   : Progressive
Bits/(Pixel*Frame)          : 0.603
Stream size                 : 19.3 GiB (90%)
Title                       : Dark Angel
Language                    : English
Default                     : Yes
Forced                      : No
Color range                 : Limited
Color primaries             : BT.709
Transfer characteristics    : BT.709
Matrix coefficients         : BT.709

Audio
ID                          : 2
Format                      : DTS
Format/Info                 : Digital Theater Systems
Format profile              : MA / Core
Codec ID                    : A_DTS
Duration                    : 1 h 31 min
Bit rate mode               : Variable / Constant
Bit rate                    : 3 432 kb/s / 1 509 kb/s
Channel(s)                  : 6 channels
Channel positions           : Front: L C R, Side: L R, LFE
Sampling rate               : 48.0 kHz
Frame rate                  : 93.750 FPS (512 SPF)
Bit depth                   : 24 bits
Compression mode            : Lossless / Lossy
Stream size                 : 2.20 GiB (10%)
Title                       : English
Language                    : English
Default                     : Yes
Forced                      : No

Text #1
ID                          : 3
Format                      : PGS
Muxing mode                 : zlib
Codec ID                    : S_HDMV/PGS
Codec ID/Info               : Picture based subtitle format used on BDs/HD-DVDs
Duration                    : 1 h 27 min
Bit rate                    : 30.6 kb/s
Count of elements           : 1755
Stream size                 : 19.2 MiB (0%)
Title                       : English
Language                    : English
Default                     : No
Forced                      : No

Text #2
ID                          : 4
Format                      : PGS
Muxing mode                 : zlib
Codec ID                    : S_HDMV/PGS
Codec ID/Info               : Picture based subtitle format used on BDs/HD-DVDs
Duration                    : 1 h 27 min
Bit rate                    : 24.4 kb/s
Count of elements           : 1468
Stream size                 : 15.2 MiB (0%)
Title                       : Turkish
Language                    : Turkish
Default                     : Yes
Forced                      : No

[Image: AXUTNk.jpg]

[Image: TTuEHQ.jpg]

[Image: tdown.png]

For Only Vip Members

Dark Angel (1990) Bluray Remux 1080p AVC DTS-HD MA 5.1 VIP
Reply


Possibly Related Threads…
Thread Author Replies Views Last Post
  Scary Stories to Tell in the Dark (2019) Bluray REMUX 1080p TR-EN AVC TrueHD 5.1-TURG AbrA 0 121 04-18-2020, 05:27 PM
Last Post: AbrA
  Night of the Living Dead (1990) Bluray Remux 1080p AVC DTS-HD MA 5.1 admin 1 656 03-27-2020, 10:43 AM
Last Post: prodigalson1
  Home Alone 1-2 (1990-1992) Bluray Remux 1080p AVC DD 5.1-MiXeD admin 0 335 12-28-2019, 06:40 PM
Last Post: admin
  Dark Phoenix (2019) Bluray Remux 1080p AVC DTS 7.1 admin 0 1,110 09-08-2019, 09:25 AM
Last Post: admin
  Pacific Heights (1990) Bluray Remux 1080p AVC DTS 5.1 admin 0 375 08-30-2019, 11:54 AM
Last Post: admin

Forum Jump:


Users browsing this thread: 1 Guest(s)

Powered By MyBB
Theme By Audentio Design
Updated By iAndrew | 2018