Thread Rating:
  • 0 Vote(s) - 0 Average
  • 1
  • 2
  • 3
  • 4
  • 5

[-]
Tags
home bluray 2015 avc 1080p daddys 2017 hd ma 1 2 remux dts 5

  Daddys Home 1-2 (2015-2017) Bluray Remux 1080p AVC DTS-HD MA 5.1
#1
Daddys Home (2015) Bluray Remux 1080p AVC DTS-HD MA 5.1

[Image: tt1528854.jpg]

[Image: imdb.png]
https://www.imdb.com/title/tt1528854/
https://www.imdb.com/title/tt5657846/

[Image: info.png]
Daddy's Home 2015 EN.mkv
Format                      : Matroska
Format version              : Version 4 / Version 2
File size                   : 22.3 GiB
Duration                    : 1 h 36 min
Overall bit rate mode       : Variable
Overall bit rate            : 33.3 Mb/s
Movie name                  : Daddy's Home
Encoded date                : UTC 2016-04-17 22:08:38
Writing application         : mkvmerge v8.3.0 ('Over the Horizon') 64bit
Writing library             : libebml v1.3.1 + libmatroska v1.4.2

Video
ID                          : 1
Format                      : AVC
Format/Info                 : Advanced Video Codec
Format profile              : [email protected]
Format settings             : CABAC / 4 Ref Frames
Format settings, CABAC      : Yes
Format settings, ReFrames   : 4 frames
Codec ID                    : V_MPEG4/ISO/AVC
Duration                    : 1 h 36 min
Bit rate mode               : Variable
Bit rate                    : 28.3 Mb/s
Maximum bit rate            : 30.4 Mb/s
Width                       : 1 920 pixels
Height                      : 1 080 pixels
Display aspect ratio        : 16:9
Frame rate mode             : Constant
Frame rate                  : 23.976 (24000/1001) FPS
Color space                 : YUV
Chroma subsampling          : 4:2:0
Bit depth                   : 8 bits
Scan type                   : Progressive
Bits/(Pixel*Frame)          : 0.570
Stream size                 : 19.0 GiB (85%)
Title                       : Daddy's Home
Language                    : English
Default                     : Yes
Forced                      : No

Audio
ID                          : 2
Format                      : DTS
Format/Info                 : Digital Theater Systems
Format profile              : X / MA / Core
Codec ID                    : A_DTS
Duration                    : 1 h 36 min
Bit rate mode               : Variable / Variable / Constant
Bit rate                    : 4 909 kb/s / 4 909 kb/s / 1 509 kb/s
Channel(s)                  : Object Based / 8 channels / 6 channels
Channel positions           : Object Based / Front: L C R, Side: L R, Back: L R, LFE / Front: L C R, Side: L R, LFE
Sampling rate               :  / 48.0 kHz / 48.0 kHz
Frame rate                  : 93.750 FPS (512 SPF)
Bit depth                   :  / 24 bits / 24 bits
Compression mode            :  / Lossless / Lossy
Stream size                 : 3.29 GiB (15%)
Title                       : English
Language                    : English
Default                     : Yes
Forced                      : No

Text #1
ID                          : 3
Format                      : PGS
Muxing mode                 : zlib
Codec ID                    : S_HDMV/PGS
Codec ID/Info               : Picture based subtitle format used on BDs/HD-DVDs
Duration                    : 1 h 30 min
Bit rate                    : 20.1 kb/s
Count of elements           : 4032
Stream size                 : 13.0 MiB (0%)
Title                       : English
Language                    : English
Default                     : No
Forced                      : No

Text #2
ID                          : 4
Format                      : PGS
Muxing mode                 : zlib
Codec ID                    : S_HDMV/PGS
Codec ID/Info               : Picture based subtitle format used on BDs/HD-DVDs
Duration                    : 1 h 35 min
Bit rate                    : 16.0 kb/s
Count of elements           : 3294
Stream size                 : 10.9 MiB (0%)
Title                       : Turkish
Language                    : Turkish
Default                     : Yes
Forced                      : No

[Image: SrCNKP.jpg]

[Image: QQNOSR.jpg]

[Image: tdown.png]

For Only Vip Members

Daddys Home 1-2 (2015-2017) Bluray Remux 1080p AVC DTS-HD MA 5.1 VIP
Reply


Possibly Related Threads…
Thread Author Replies Views Last Post
  Home Alone 1-2 (1990-1992) Bluray Remux 1080p AVC DD 5.1-MiXeD admin 0 335 12-28-2019, 06:40 PM
Last Post: admin
  Home (2015) Bluray Remux 1080p TR EN AVC DTS-HD MA 7.1 admin 0 390 07-15-2019, 03:13 PM
Last Post: admin
  Welcome Home (2018) Bluray Remux 1080p AVC DTS-HRA 5.1 admin 0 362 06-30-2019, 11:22 AM
Last Post: admin
  Fly Away Home (1996) Bluray Remux 1080p AVC TrueHD 5.1 admin 0 479 05-18-2019, 04:02 PM
Last Post: admin
  Sweet Home Alabama (2002) Bluray Remux TR-EN 1080p AVC DD5.1 admin 0 563 03-30-2019, 05:37 PM
Last Post: admin

Forum Jump:


Users browsing this thread: 1 Guest(s)

Powered By MyBB
Theme By Audentio Design
Updated By iAndrew | 2018