Thread Rating:
  • 0 Vote(s) - 0 Average
  • 1
  • 2
  • 3
  • 4
  • 5

[-]
Tags
daddy bluray day avc 1080p en 2007 camp 1 remux 5 tr truehd

  Daddy Day Camp (2007) Bluray Remux 1080p TR-EN AVC TrueHD 5.1
#1
Daddy Day Camp (2007) Bluray Remux 1080p TR-EN AVC TrueHD 5.1

[Image: tt0462244.jpg]

[Image: imdb.png]
https://www.imdb.com/title/tt0462244/

[Image: info.png]
Daddy Day Camp 2007 TR EN.mkv
Format                      : Matroska
Format version              : Version 4 / Version 2
File size                   : 18.4 GiB
Duration                    : 1 h 29 min
Overall bit rate mode       : Variable
Overall bit rate            : 29.5 Mb/s
Movie name                  : Daddy Day Camp
Encoded date                : UTC 2017-10-06 17:13:31
Writing application         : mkvmerge v16.0.0 ('Protest') 64-bit
Writing library             : libebml v1.3.5 + libmatroska v1.4.8

Video
ID                          : 1
Format                      : AVC
Format/Info                 : Advanced Video Codec
Format profile              : [email protected]
Format settings, CABAC      : Yes
Format settings, RefFrames  : 2 frames
Codec ID                    : V_MPEG4/ISO/AVC
Duration                    : 1 h 29 min
Bit rate mode               : Variable
Bit rate                    : 25.4 Mb/s
Width                       : 1 920 pixels
Height                      : 1 080 pixels
Display aspect ratio        : 16:9
Frame rate mode             : Constant
Frame rate                  : 23.976 (24000/1001) FPS
Color space                 : YUV
Chroma subsampling          : 4:2:0
Bit depth                   : 8 bits
Scan type                   : Progressive
Bits/(Pixel*Frame)          : 0.511
Stream size                 : 15.8 GiB (86%)
Title                       : Daddy Day Camp
Language                    : English
Default                     : Yes
Forced                      : No

Audio #1
ID                          : 2
Format                      : TrueHD
Codec ID                    : A_TRUEHD
Duration                    : 1 h 29 min
Bit rate mode               : Variable
Bit rate                    : 3 383 kb/s
Maximum bit rate            : 4 944 kb/s
Channel(s)                  : 6 channels
Channel positions           : Front: L C R, Side: L R, LFE
Sampling rate               : 48.0 kHz
Frame rate                  : 1 200.000 FPS (40 SPF)
Compression mode            : Lossless
Stream size                 : 2.10 GiB (11%)
Title                       : English
Language                    : English
Default                     : Yes
Forced                      : No

Audio #2
ID                          : 3
Format                      : AC-3
Format/Info                 : Audio Coding 3
Format settings, Endianness : Big
Codec ID                    : A_AC3
Duration                    : 1 h 29 min
Bit rate mode               : Constant
Bit rate                    : 640 kb/s
Channel(s)                  : 6 channels
Channel positions           : Front: L C R, Side: L R, LFE
Sampling rate               : 48.0 kHz
Frame rate                  : 31.250 FPS (1536 SPF)
Bit depth                   : 16 bits
Compression mode            : Lossy
Stream size                 : 407 MiB (2%)
Title                       : Turkish
Language                    : Turkish
Service kind                : Complete Main
Default                     : No
Forced                      : No

Text #1
ID                          : 4
Format                      : PGS
Muxing mode                 : zlib
Codec ID                    : S_HDMV/PGS
Codec ID/Info               : Picture based subtitle format used on BDs/HD-DVDs
Duration                    : 1 h 23 min
Bit rate                    : 35.5 kb/s
Count of elements           : 2117
Stream size                 : 21.1 MiB (0%)
Title                       : English
Language                    : English
Default                     : No
Forced                      : No

Text #2
ID                          : 5
Format                      : PGS
Muxing mode                 : zlib
Codec ID                    : S_HDMV/PGS
Codec ID/Info               : Picture based subtitle format used on BDs/HD-DVDs
Duration                    : 1 h 23 min
Bit rate                    : 30.7 kb/s
Count of elements           : 2155
Stream size                 : 18.3 MiB (0%)
Title                       : Turkish
Language                    : Turkish
Default                     : Yes
Forced                      : No

[Image: vlcsnap-error095-jpg-86f7f051e339f61b5d5...369ab0.jpg]

[Image: vlcsnap-error975-jpg-c3e6d570ba37656cab4...e6c6eb.jpg]

[Image: tdown.png]

For Only Vip Members

Daddy Day Camp (2007) Bluray Remux 1080p TR-EN AVC TrueHD 5.1 VIP
Reply


Possibly Related Threads…
Thread Author Replies Views Last Post
  The Kingdom 2007 1080p Blu-ray Remux VC-1 DTS-HD MA 5.1 - KRaLiMaRKo KAiJu 0 98 11-19-2020, 11:50 AM
Last Post: KAiJu
  The Hills Have Eyes I-II (2006-2007) Bluray REMUX 1080p AVC DTS-HD MA 5.1-HUSe AbrA 1 178 10-11-2020, 06:24 PM
Last Post: pastifox
  The Hitcher (2007) Bluray REMUX 1080p AVC DTS-HD MA 5.1-HUSe AbrA 0 110 10-05-2020, 01:50 PM
Last Post: AbrA
  Blades Of Glory 2007 Bluray REMUX 1080p AVC DD 5.1-HUSe AbrA 0 152 09-22-2020, 04:01 PM
Last Post: AbrA
  The Heartbreak Kid (2007) Bluray REMUX 1080p AVC DD 5.1-HUSe AbrA 0 172 09-14-2020, 08:48 PM
Last Post: AbrA

Forum Jump:


Users browsing this thread: 1 Guest(s)

Powered By MyBB
Theme By Audentio Design
Updated By iAndrew | 2018