Thread Rating:
  • 0 Vote(s) - 0 Average
  • 1
  • 2
  • 3
  • 4
  • 5

[-]
Tags
crooked house bluray avc 1080p 2017 hd ma 1 remux dts 5

  Crooked House (2017) Bluray Remux 1080p AVC DTS-HD MA 5.1
#1
Crooked House (2017) Bluray Remux 1080p AVC DTS-HD MA 5.1

[Image: tt1869347.jpg]

[Image: imdb.png]
https://www.imdb.com/title/tt1869347/

[Image: info.png]
Crooked House 2017 EN.mkv
Format                      : Matroska
Format version              : Version 4 / Version 2
File size                   : 21.7 GiB
Duration                    : 1 h 55 min
Overall bit rate mode       : Variable
Overall bit rate            : 27.0 Mb/s
Movie name                  : Crooked House
Encoded date                : UTC 2018-02-01 18:15:58
Writing application         : mkvmerge v20.0.0 ('I Am The Sun') 64-bit
Writing library             : libebml v1.3.5 + libmatroska v1.4.8

Video
ID                          : 1
Format                      : AVC
Format/Info                 : Advanced Video Codec
Format profile              : [email protected]
Format settings             : CABAC / 2 Ref Frames
Format settings, CABAC      : Yes
Format settings, ReFrames   : 2 frames
Format settings, GOP        : M=1, N=10
Codec ID                    : V_MPEG4/ISO/AVC
Duration                    : 1 h 55 min
Bit rate mode               : Variable
Bit rate                    : 24.9 Mb/s
Width                       : 1 920 pixels
Height                      : 1 080 pixels
Display aspect ratio        : 16:9
Frame rate mode             : Constant
Frame rate                  : 23.976 (24000/1001) FPS
Color space                 : YUV
Chroma subsampling          : 4:2:0
Bit depth                   : 8 bits
Scan type                   : Progressive
Bits/(Pixel*Frame)          : 0.500
Stream size                 : 20.0 GiB (92%)
Title                       : Crooked House
Language                    : English
Default                     : Yes
Forced                      : No

Audio
ID                          : 2
Format                      : DTS
Format/Info                 : Digital Theater Systems
Format profile              : MA / Core
Codec ID                    : A_DTS
Duration                    : 1 h 55 min
Bit rate mode               : Variable / Constant
Bit rate                    : 2 106 kb/s / 1 509 kb/s
Channel(s)                  : 6 channels
Channel positions           : Front: L C R, Side: L R, LFE
Sampling rate               : 48.0 kHz
Frame rate                  : 93.750 FPS (512 SPF)
Bit depth                   : 16 bits
Compression mode            : Lossless / Lossy
Stream size                 : 1.69 GiB (8%)
Title                       : English
Language                    : English
Default                     : Yes
Forced                      : No

Text #1
ID                          : 3
Format                      : PGS
Muxing mode                 : zlib
Codec ID                    : S_HDMV/PGS
Codec ID/Info               : Picture based subtitle format used on BDs/HD-DVDs
Duration                    : 1 h 46 min
Bit rate                    : 40.7 kb/s
Count of elements           : 2941
Stream size                 : 30.9 MiB (0%)
Title                       : English
Language                    : English
Default                     : No
Forced                      : No

Text #2
ID                          : 4
Format                      : PGS
Muxing mode                 : zlib
Codec ID                    : S_HDMV/PGS
Codec ID/Info               : Picture based subtitle format used on BDs/HD-DVDs
Duration                    : 1 h 46 min
Bit rate                    : 41.1 kb/s
Count of elements           : 2508
Stream size                 : 31.2 MiB (0%)
Title                       : Turkish
Language                    : Turkish
Default                     : Yes
Forced                      : No

[Image: 47863298521_64521d4507_b.jpg]

[Image: 47863299211_963b3aafa1_b.jpg]

[Image: tdown.png]

For Only Vip Members

Crooked House (2017) Bluray Remux 1080p AVC DTS-HD MA 5.1 VIP
Reply


Possibly Related Threads…
Thread Author Replies Views Last Post
  The House Bunny (2008) Bluray REMUX 1080p AVC TrueHD 5.1-HUSe AbrA 0 125 10-05-2020, 01:53 PM
Last Post: AbrA
  Safe House (2012) Bluray REMUX 1080p AVC DTS-HD MA 5.1-HUSe AbrA 0 404 06-04-2020, 10:31 AM
Last Post: AbrA
  The House That Jack Built (2018) Bluray Remux 1080p AVC DTS-HD MA 5.1 admin 0 734 08-10-2019, 08:06 AM
Last Post: admin
  The House That Jack Built (2018) Bluray Remux 1080p AVC DTS-HD MA 5.1 admin 0 837 07-15-2019, 11:26 AM
Last Post: admin
  Mark Felt The Man Who Brought Down the White House (2017) Bluray Remux 1080p admin 0 1,040 06-27-2019, 09:04 AM
Last Post: admin

Forum Jump:


Users browsing this thread: 1 Guest(s)

Powered By MyBB
Theme By Audentio Design
Updated By iAndrew | 2018