Thread Rating:
  • 0 Vote(s) - 0 Average
  • 1
  • 2
  • 3
  • 4
  • 5

[-]
Tags
bluray duology x264 dundee 1080p 1986 prodji 1988 crocodile dts

  Crocodile Dundee (1986-1988) Duology BluRay 1080p DTS x264-PRoDJi
#1
Crocodile Dundee (1986-1988) Duology BluRay 1080p DTS x264-PRoDJi

[Image: dundee.jpg]

[Image: imdb.png]
https://www.imdb.com/title/tt0090555/
https://www.imdb.com/title/tt0092493/

[Image: info.png]
Format : Matroska
Format version : Version 4
File size : 6.55 GiB
Duration : 1 h 37 min
Overall bit rate : 9 598 kb/s
Encoded date : UTC 2017-11-04 10:40:21
Writing application : mkvmerge v17.0.0 ('Be Ur Friend') 64-bit
Writing library : libebml v1.3.5 + libmatroska v1.4.8

Video
ID : 1
Format : AVC
Format/Info : Advanced Video Codec
Format profile : High@L4.1
Format settings : CABAC / 4 Ref Frames
Format settings, CABAC : Yes
Format settings, RefFrames : 4 frames
Codec ID : V_MPEG4/ISO/AVC
Duration : 1 h 37 min
Bit rate : 7 865 kb/s
Width : 1 920 pixels
Height : 816 pixels
Display aspect ratio : 2.35:1
Frame rate mode : Constant
Frame rate : 23.976 (24000/1001) FPS
Color space : YUV
Chroma subsampling : 4:2:0
Bit depth : 8 bits
Scan type : Progressive
Bits/(Pixel*Frame) : 0.209
Stream size : 5.37 GiB (82%)
Title : PRoDJi
Writing library : x264 core 148 r2744 b97ae06
Encoding settings : cabac=1 / ref=5 / deblock=1:-1:-1 / analyse=0x3:0x113 / me=umh / subme=9 / psy=1 / psy_rd=1.00:0.00 / mixed_ref=1 / me_range=24 / chroma_me=1 / trellis=2 / 8x8dct=1 / cqm=2 / deadzone=21,11 / fast_pskip=1 / chroma_qp_offset=-5 / threads=12 / lookahead_threads=1 / sliced_threads=0 / nr=0 / decimate=0 / interlaced=0 / bluray_compat=0 / constrained_intra=0 / bframes=5 / b_pyramid=1 / b_adapt=2 / b_bias=2 / direct=3 / weightb=1 / open_gop=0 / weightp=2 / keyint=230 / keyint_min=22 / scenecut=40 / intra_refresh=0 / rc_lookahead=45 / rc=2pass / mbtree=1 / bitrate=7865 / ratetol=1.0 / qcomp=0.60 / qpmin=10 / qpmax=41 / qpstep=4 / cplxblur=20.0 / qblur=0.5 / ip_ratio=1.30 / aq=1:1.00
Language : English
Default : Yes
Forced : No

Audio #1
ID : 2
Format : DTS
Format/Info : Digital Theater Systems
Codec ID : A_DTS
Duration : 1 h 37 min
Bit rate mode : Constant
Bit rate : 1 509 kb/s
Channel(s) : 2 channels
Channel layout : L R
Sampling rate : 48.0 kHz
Frame rate : 93.750 FPS (512 SPF)
Bit depth : 24 bits
Compression mode : Lossy
Stream size : 1.03 GiB (16%)
Title : English DTS@1509Kbps 6 chnls
Language : English
Default : Yes
Forced : No

Audio #2
ID : 3
Format : AC-3
Format/Info : Audio Coding 3
Commercial name : Dolby Digital
Codec ID : A_AC3
Duration : 1 h 37 min
Bit rate mode : Constant
Bit rate : 224 kb/s
Channel(s) : 2 channels
Channel layout : L R
Sampling rate : 48.0 kHz
Frame rate : 31.250 FPS (1536 SPF)
Bit depth : 16 bits
Compression mode : Lossy
Stream size : 157 MiB (2%)
Title : 224Kbps 2 chnls AC3 Turkish
Language : Turkish
Service kind : Complete Main
Default : No
Forced : No

Text #1
ID : 4
Format : UTF-8
Codec ID : S_TEXT/UTF8
Codec ID/Info : UTF-8 Plain Text
Duration : 1 h 32 min
Bit rate : 43 b/s
Count of elements : 1024
Stream size : 29.8 KiB (0%)
Language : English
Default : Yes
Forced : No

Text #2
ID : 5
Format : UTF-8
Codec ID : S_TEXT/UTF8
Codec ID/Info : UTF-8 Plain Text
Duration : 1 h 32 min
Bit rate : 41 b/s
Count of elements : 702
Stream size : 28.2 KiB (0%)
Language : Turkish
Default : No
Forced : No

Menu
00:00:00.000 : en:Opening Credits
00:07:18.605 : en:A Crocodile Legend
00:13:53.583 : en:Mind Over Matter
00:20:16.132 : en:Stick Close to Me
00:29:51.957 : en:Bathing with a Crocodile
00:33:00.770 : en:A Mate of Mine
00:40:05.445 : en:Broadening Horizons
00:50:57.471 : en:Sightseeing
00:53:27.746 : en:A Civilized Meal
00:57:39.498 : en:Off Duty
01:04:50.637 : en:Wash Day
01:11:16.230 : en:Cure for the Common Cold
01:14:12.531 : en:That's A Knife
01:23:52.653 : en:A New York "Walkabout"
01:31:08.797 : en:Subway Communication
01:34:10.311 : en:End Credits

[Image: 1.jpg]

[Image: 2.jpg]

[Image: tdown.png]

For Only Vip Members
Reply


Possibly Related Threads...
Thread Author Replies Views Last Post
  The Addams Family (1991) Bluray 1080p DUAL DTS x264-MaG admin 0 35 02-17-2019, 09:31 PM
Last Post: admin
  Smokin Aces Duology (2006-2010) BluRay 1080p DTS x264-PRoDJi admin 0 99 12-07-2018, 11:17 AM
Last Post: admin
  The Expendables Triology (2010-2014) BluRay 810p-1080p DTS x264-PRoDJi admin 1 150 12-06-2018, 05:50 PM
Last Post: rechterpoot
  Rosemarys Baby (2014) Part 1-2 BluRay 1080p DTS x264-PRoDJi admin 0 87 12-05-2018, 10:11 PM
Last Post: admin
  Taxi Quadrilogy (1998-2007) BluRay 810p DTS x264-PRoDJi admin 0 118 11-17-2018, 11:45 AM
Last Post: admin

Forum Jump:


Users browsing this thread: 1 Guest(s)

Powered By MyBB
Theme By Audentio Design
Updated By iAndrew | 2018