Thread Rating:
  • 0 Vote(s) - 0 Average
  • 1
  • 2
  • 3
  • 4
  • 5

[-]
Tags
bluray 1995 crimson avc 1080p tide en hd ma 1 remux dts 5 tr

  Crimson Tide (1995) Bluray Remux 1080p TR-EN AVC DTS-HD MA 5.1
#1
Crimson Tide (1995) Bluray Remux 1080p TR-EN AVC DTS-HD MA 5.1

[Image: crimson.tide.jpg]

[Image: imdb.png]
https://www.imdb.com/title/tt0112740/

[Image: info.png]
Crimson Tide 1995 TR EN.mkv
Format                      : Matroska
Format version              : Version 4 / Version 2
File size                   : 20.2 GiB
Duration                    : 1 h 55 min
Overall bit rate mode       : Variable
Overall bit rate            : 25.0 Mb/s
Encoded date                : UTC 2014-05-17 19:44:33
Writing application         : mkvmerge v6.9.1 ('Blue Panther') 64bit built on Apr 18 2014 18:23:38
Writing library             : libebml v1.3.0 + libmatroska v1.4.1

Video
ID                          : 1
Format                      : AVC
Format/Info                 : Advanced Video Codec
Format profile              : [email protected]
Format settings, CABAC      : Yes
Format settings, ReFrames   : 2 frames
Format settings, GOP        : M=1, N=10
Codec ID                    : V_MPEG4/ISO/AVC
Duration                    : 1 h 55 min
Bit rate mode               : Variable
Bit rate                    : 23.5 Mb/s
Width                       : 1 920 pixels
Height                      : 1 080 pixels
Display aspect ratio        : 16:9
Frame rate mode             : Constant
Frame rate                  : 23.976 (24000/1001) FPS
Color space                 : YUV
Chroma subsampling          : 4:2:0
Bit depth                   : 8 bits
Scan type                   : Progressive
Bits/(Pixel*Frame)          : 0.473
Stream size                 : 19.0 GiB (94%)
Title                       : Crimson Tide
Language                    : English
Default                     : Yes
Forced                      : No

Audio #1
ID                          : 2
Format                      : AC-3
Format/Info                 : Audio Coding 3
Format settings, Endianness : Big
Codec ID                    : A_AC3
Duration                    : 1 h 55 min
Bit rate mode               : Constant
Bit rate                    : 640 kb/s
Channel(s)                  : 6 channels
Channel positions           : Front: L C R, Side: L R, LFE
Sampling rate               : 48.0 kHz
Frame rate                  : 31.250 FPS (1536 spf)
Bit depth                   : 16 bits
Compression mode            : Lossy
Stream size                 : 531 MiB (3%)
Title                       : English
Language                    : English
Service kind                : Complete Main
Default                     : Yes
Forced                      : No

Audio #2
ID                          : 3
Format                      : AC-3
Format/Info                 : Audio Coding 3
Format settings, Endianness : Big
Codec ID                    : A_AC3
Duration                    : 1 h 55 min
Bit rate mode               : Constant
Bit rate                    : 320 kb/s
Channel(s)                  : 2 channels
Channel positions           : Front: L R
Sampling rate               : 48.0 kHz
Frame rate                  : 31.250 FPS (1536 spf)
Bit depth                   : 16 bits
Compression mode            : Lossy
Stream size                 : 265 MiB (1%)
Title                       : Turkish
Language                    : Turkish
Service kind                : Complete Main
Default                     : No
Forced                      : No

Text #1
ID                          : 4
Format                      : PGS
Muxing mode                 : zlib
Codec ID                    : S_HDMV/PGS
Codec ID/Info               : Picture based subtitle format used on BDs/HD-DVDs
Title                       : English
Language                    : English
Default                     : No
Forced                      : No

Text #2
ID                          : 5
Format                      : PGS
Muxing mode                 : zlib
Codec ID                    : S_HDMV/PGS
Codec ID/Info               : Picture based subtitle format used on BDs/HD-DVDs
Title                       : Turkish
Language                    : Turkish
Default                     : Yes
Forced                      : No

[Image: vlcsnap-error456-jpg-eb9c408a33605a146f3...1bfa9f.jpg]

[Image: vlcsnap-error868-jpg-8d81390429d507d22a1...3cbb95.jpg]

[Image: tdown.png]

For Only Vip Members

Crimson Tide (1995) Bluray Remux 1080p TR-EN AVC DTS-HD MA 5.1 VIP
Reply


Possibly Related Threads…
Thread Author Replies Views Last Post
  The Quick and the Dead (1995) Bluray REMUX 1080p TR-EN AVC TrueHD 5.1-TURG AbrA 0 570 04-11-2020, 07:05 PM
Last Post: AbrA
  Outbreak (1995) Bluray REMUX 1080p EN-TR VC-1 TrueHD 5.1-HuSe admin 0 575 03-18-2020, 01:31 PM
Last Post: admin
  Die Hard With a Vengeance (1995) Bluray Remux 1080p x264-HUSE admin 1 814 10-10-2019, 01:43 PM
Last Post: admin
  Outbreak (1995) Bluray Remux 1080p VC-1 TrueHD 5.1 admin 0 805 08-23-2019, 01:51 PM
Last Post: admin
  Waterworld (1995) Bluray Remux 1080p AVC DTS-HD MA 5.1 admin 0 745 08-10-2019, 03:38 PM
Last Post: admin

Forum Jump:


Users browsing this thread: 1 Guest(s)

Powered By MyBB
Theme By Audentio Design
Updated By iAndrew | 2018